Welcome Guest ( Log In | Register )

> Releases Upload / Добавление релизов

Добавить релиз тут / Click here to add release
Рекомендованные обменники / Recommended file shares

> Akasha - Canticles Of The Sepulchral Deity (2019), Black Metal
post Mar 15 2019, 20:22:04
Post #1

Мегаманьяк
***********
Group: Металариец
Posts: 1,602
Releases: 1260
From: Prešov
On Forums: 4 years 11 months
Thanks: 29748 time(s)
Slovakia


(IMG:http://metalarea.org/images/audiocovers/2019_Mar/acov_tid319100_thumb.jpg)

*Artist: Akasha
*Album: Canticles Of The Sepulchral Deity
*Year: 2019
*Genre: Black Metal
*Country: United States (IMG:http://metalarea.org/forum/style_images/flags/United%20States.png)
*Format: mp3@CBR320kbps
*Size: 124MB

Tracklist:
1. Portal Through Forgotten Coffins 02:23
2. Akasha (Canticles of the Sepulchral Deity) 05:14
3. She Who Runs with Wolves 03:43
4. Enthroned in Catacombs 04:17
5. Sepulchral Oath 05:07
6. Bornless 01:45
7. Psychic Fog, Draconian Paroxysm 05:07
8. Vibratory Waves Collapsed 04:56
9. Opposing the Firmament 04:22
10. Moon as Blood 05:23
11. Worship at the Threshold of Her Womb 06:44
******************************
Total playing time: 49:01



Extended info
Grey Matter Productions


Technical info
(IMG:http://metalarea.org/images/spectrogram/2019_Mar/3ca2fe7ecf861a5defe2678e4992acad.png)
Input File: 02. Akasha (Canticles Of The Sepulchral Deity).mp3
Channels : 2
Sample Rate : 44100
Precision : 16-bit
Duration : 00:05:14.46 = 13867510 samples = 23584.2 CDDA sectors
File Size : 12.8M
Bit Rate : 326k
Sample Encoding: MPEG audio (layer I, II or III)
Comments :
Title=Akasha (Canticles Of The Sepulchral Deity)
Artist=Akasha
Album=Canticles Of The Sepulchral Deity
Tracknumber=02/11
Year=2019
Genre=Black Metal



Register


Go to the top of the page
  Insert nick Quick quote
+Quote Post
 
Start new topic
Replies (1 - 6)
post Mar 18 2019, 17:23:14
Post #2

Group: Подсевший
Posts: 13
Releases: 0
On Forums: 1 year 5 months
Thanks: 0 time(s)
United States


Mirror, please?
Go to the top of the page
  Insert nick Quick quote
+Quote Post
post Mar 18 2019, 19:12:02
Post #3

кручу наждак
**************
Group: Металариец
Posts: 3,755
Releases: 95
From: Самара
On Forums: 8 years 10 months
Thanks: 2809 time(s)
Russian Federation


Альбом дичайше вставил.


Thanks:
(1) Daale,
Go to the top of the page
  Insert nick Quick quote
+Quote Post
post Mar 18 2019, 19:47:42
Post #4

the faceless one
Group Icon
Group: S-moderation team
Posts: 8,954
Releases: 1763
On Forums: 10 years 7 months
Thanks: 104014 time(s)
Russian Federation


ЦИТАТА
Mirror, please?

Register


Thanks:
(1) rimfrost,
Go to the top of the page
  Insert nick Quick quote
+Quote Post
post Mar 18 2019, 19:51:13
Post #5

Правь статус, ####!111
**************
Group: Металариец
Posts: 38,572
Releases: 559
On Forums: 9 years 9 months
Thanks: 29415 time(s)
Russian Federation


Шквалоподобно, мощно и мелодично.

Облога огненная, понравилась больше музыки, которая хоть и не плоха, но но.
Go to the top of the page
  Insert nick Quick quote
+Quote Post
post Mar 23 2019, 20:38:44
Post #6

Правь статус, ####!111
**************
Group: Металариец
Posts: 2,636
Releases: 0
On Forums: 3 years 1 month
Thanks: 1517 time(s)
Unknown


Register


Thanks:
(1) rimfrost,
Go to the top of the page
  Insert nick Quick quote
+Quote Post
post Yesterday, 20:25:58
Post #7

I hate you all
***********
Group: Металариец
Posts: 1,914
Releases: 74
From: Ukraine
On Forums: 11 years 10 months
Thanks: 4802 time(s)
Ukraine


Выскажу по сабжу своё мнение . лабуда безпонтовая .


Thanks:
Go to the top of the page
  Insert nick Quick quote
+Quote Post

Reply to this topicStart new topic
2 User(s) are reading this topic (2 Guests and 0 Anonymous Users)
0 Members:

 



- Lo-Fi Version Support form
Copyrights and abuse reports form
Time is now: 25th March 2019 - 22:51:55