Welcome Guest ( Log In | Register )

> Releases Upload / Добавление релизов

Добавить релиз тут / Click here to add release
Рекомендованные обменники / Recommended file shares

 
Reply to this topicStart new topic
> Warslaves - Whips, Whips, Whips​.​.​. [ep] (2019), Black/Speed Metal
post Mar 15 2019, 22:42:28
Post #1

Правь статус, ####!616
**************
Group: Металариец
Posts: 4,527
Releases: 3115
From: 55°35’N 38°08’E
On Forums: 10 years 8 months
Thanks: 58913 time(s)
Unknown


(IMG:http://metalarea.org/images/audiocovers/2019_Mar/acov_tid319105_thumb.jpg)

*Artist: Warslaves
*Album: Whips, Whips, Whips​.​.​. [ep]
*Year: 2019
*Genre: Black/Speed Metal
*Country: Canada (IMG:http://metalarea.org/forum/style_images/flags/Canada.png)
*Format: mp3@CBR320kbps
*Size: 32MB

Tracklist:
1.Whips, Whips, Whips... 03:34
2.Hot Sickness 04:14
3.Warriors in the Night 03:41
4.Rise of the Sub-Human 02:48
******************************
Total playing time: 14:17




Technical info
(IMG:http://metalarea.org/images/spectrogram/2019_Mar/2b679ae10e5640171d44a293903d4e8c.png)
Input File: 01 Whips, Whips, Whips....mp3
Channels : 2
Sample Rate : 44100
Precision : 16-bit
Duration : 00:03:34.25 = 9448205 samples = 16068.4 CDDA sectors
File Size : 8.75M
Bit Rate : 327k
Sample Encoding: MPEG audio (layer I, II or III)
Comments :
Title=Whips, Whips, Whips...
Artist=Warslaves
Album=Whips, Whips, Whips...
Tracknumber=1
Year=2019
Genre=Metal



Register


Go to the top of the page
  Insert nick Quick quote
+Quote Post

Reply to this topicStart new topic
1 User(s) are reading this topic (1 Guests and 0 Anonymous Users)
0 Members:

 



- Lo-Fi Version Support form
Copyrights and abuse reports form
Time is now: 25th March 2019 - 06:39:49