Welcome Guest ( Log In | Register )

> Releases Upload / Добавление релизов

Добавить релиз тут / Click here to add release
Рекомендованные обменники / Recommended file shares

 
Reply to this topicStart new topic
> Whore Blood - Empires Of Black Malice [demo] (2018), Raw Black Metal
post Mar 15 2019, 23:03:06
Post #1

Правь статус, ####!616
**************
Group: Металариец
Posts: 4,527
Releases: 3115
From: 55°35’N 38°08’E
On Forums: 10 years 8 months
Thanks: 58913 time(s)
Unknown


(IMG:http://metalarea.org/images/audiocovers/2019_Mar/acov_tid319106_thumb.jpg)

*Artist: Whore Blood
*Album: Empires Of Black Malice [demo]
*Year: 2018
*Genre: Raw Black Metal
*Country: Sweden (IMG:http://metalarea.org/forum/style_images/flags/Sweden.png)
*Format: mp3@CBR320kbps
*Size: 32MB

Tracklist:
1.Empires Of Black Malice 04:17
2.Exitium Sui 04:19
3.Mankind Festers 01:04
4.A Path Walked By Ghouls 04:09
******************************
Total playing time: 13:49




Extended info
Cassette, Triumphant Cadaver (Limited to 50 copies.)


Technical info
(IMG:http://metalarea.org/images/spectrogram/2019_Mar/ddf9f87234c132f380d5800f655931dd.png)
Input File: 01 Empires Of Black Malice.mp3
Channels : 2
Sample Rate : 44100
Precision : 16-bit
Duration : 00:04:17.79 = 11368671 samples = 19334.5 CDDA sectors
File Size : 10.4M
Bit Rate : 323k
Sample Encoding: MPEG audio (layer I, II or III)
Comments :
Title=Empires Of Black Malice
Artist=Whore Blood
Album=Empires Of Black Malice (Demo)
Tracknumber=1
Year=2018
Genre=Black Metal



Register


Go to the top of the page
  Insert nick Quick quote
+Quote Post

Reply to this topicStart new topic
2 User(s) are reading this topic (2 Guests and 0 Anonymous Users)
0 Members:

 



- Lo-Fi Version Support form
Copyrights and abuse reports form
Time is now: 25th March 2019 - 06:44:59