Welcome Guest ( Log In | Register )

> Ultra Silvam - The Spearwound Salvation (2019), Black Metal
post Mar 19 2019, 21:05:35
Post #1

Detective Godzilla
Group Icon
Group: Moderation team
Posts: 3,344
Releases: 289
On Forums: 9 years 1 week
Thanks: 10451 time(s)
Russian Federation


(IMG:https://metalarea.org/images/audiocovers/2019_Mar/acov_tid319225_thumb.jpg)

*Artist: Ultra Silvam
*Album: The Spearwound Salvation
*Year: 2019
*Genre: Black Metal
*Country: Sweden (IMG:https://metalarea.org/forum/style_images/flags/Sweden.png)
*Format: mp3@CBR320kbps
*Size: 66MB

Tracklist:
01. The Spearwound Salvation 03:12
02. Ödesalens uppenbarelse 05:09
03. Birth of a Mountain 04:03
04. Förintelsens andeväsen 01:57
05. Wings of Burial 03:20
06. A Skull Full of Stars 04:15
07. The First Wound 06:01
******************************
Total playing time: 27:57



Extended info
Promo stuff

SHADOW RECORDS is proud to present ULTRA SILVAM's striking debut album, The Spearwound Salvation, on CD, LP, and cassette tape formats.

Hailing from Malmö, Sweden, ULTRA SILVAM are a power-trio who honor their homeland's longstanding black metal idioms whilst injecting copious amounts of power and personality into the form. They made a quick-hitting yet auspicious debut in 2017 with their self-titled demo, which was later released on 7" vinyl that year by SHADOW RECORDS.

Taking that demo's foundation and fleshing out those ideas in a fuller and more realized form is the full-length The Spearwound Salvation. Tellingly titled, The Spearwound Salvation blisters forth with an incredibly ripped-raw style of black metal that possesses a poignant, magical sort of melodicism. At once familiar and foreign, ULTRA SILVAM attack with urgency and emotion but always with an palpably human touch that spits in the face of so much sterile "extreme metal." Every ringing chord, every bashed drum, every slaughtered tongue: each and every note and movement across the album bleeds an authenticity that's refreshing to behold. And yet, that would all be for naught if the band didn't possess commensurate songwriting chops - and indeed they do here, all seven songs making swift, enviously compact work within The Spearwound Salvation's 28 minutes. Many of these riffs will possess you for days, if not weeks or months or...

Present thy flesh to ULTRA SILVAM and prepare for The Spearwound Salvation!


Technical info
(IMG:https://metalarea.org/images/spectrogram/2019_Mar/410af4491e33252f1d07885926f1e8d0.png)
Input File: 3 - ULTRA SILVAM - BIRTH OF A MOUNTAIN.mp3
Channels : 2
Sample Rate : 44100
Precision : 16-bit
Duration : 00:04:02.56 = 10697028 samples = 18192.2 CDDA sectors
File Size : 9.73M
Bit Rate : 321k
Sample Encoding: MPEG audio (layer I, II or III)
Comments :
Title=Birth of a Mountain
Artist=Ultra Silvam
Album=The Spearwound Salvation
Tracknumber=3



Register


Go to the top of the page
  Insert nick Quick quote
+Quote Post
 
Start new topic
Replies (1 - 7)
post Mar 19 2019, 21:13:48
Post #2

the faceless one
Group Icon
Group: S-moderation team
Posts: 9,252
Releases: 1901
On Forums: 11 years 6 months
Thanks: 112974 time(s)
Russian Federation


Register


Go to the top of the page
  Insert nick Quick quote
+Quote Post
post Mar 19 2019, 21:17:21
Post #3

Правь статус, ####!111
**************
Group: Металариец
Posts: 45,107
Releases: 695
On Forums: 10 years 8 months
Thanks: 36702 time(s)
Russian Federation


Лоуфайно, лампово, приятственно.

Порадовали пиликающе-пищащие гитарки.
Go to the top of the page
  Insert nick Quick quote
+Quote Post
post Mar 20 2019, 08:34:12
Post #4

Добрейшей души Мегаманьяк
***********
Group: Металариец
Posts: 1,546
Releases: 0
From: Bashkortostan, Өфө
On Forums: 12 years 1 week
Thanks: 669 time(s)
Russian Federation


Эти мне тоже NIFELHEIM напомнили, но вот из-за саунда что-то не вкатило (как-то всё размыто), пошёл слушать Devil's Force от NIFELHEIM
Go to the top of the page
  Insert nick Quick quote
+Quote Post
post Jun 19 2019, 10:18:14
Post #5

Only Death is Real
******
Group: Металариец
Posts: 699
Releases: 0
From: R'lyeh
On Forums: 3 years 2 months
Thanks: 526 time(s)
Poland


Raw and old school Swedish Black Metal. Sometimes it sounds thrashy and reminds about Nifelheim and early Bathory. Very good album! (IMG:style_emoticons/default/true_black.gif)


Thanks:
Go to the top of the page
  Insert nick Quick quote
+Quote Post
post Jun 20 2019, 20:27:58
Post #6

Правь статус, ####!111
**************
Group: Металариец
Posts: 4,509
Releases: 0
From: Одесса
On Forums: 11 years 11 months
Thanks: 2978 time(s)
Unknown


That sounds good yes


Thanks:
Go to the top of the page
  Insert nick Quick quote
+Quote Post
post Jul 7 2019, 13:25:53
Post #7
BAN
Banned till
Jan 27 2020, 13:06:28



недурно
Go to the top of the page
  Insert nick Quick quote
+Quote Post
post Sep 25 2019, 16:56:10
Post #8

metalareanaut
******
Group: Металариец
Posts: 529
Releases: 3
From: Moscou profanе
On Forums: 11 years 11 months
Thanks: 464 time(s)
Russian Federation


На фоне модных исландцев и уже менее популярных французов эти шведы действительно кажутся довольно самобытными. В действительности это отголоски стандартной шведятины эдак 10-летней давности - что-то в духе Orcivus или Styggelse.
Go to the top of the page
  Insert nick Quick quote
+Quote Post

Reply to this topicStart new topic
1 User(s) are reading this topic (1 Guests and 0 Anonymous Users)
0 Members:

 



- Lo-Fi Version Support form
Copyrights and abuse reports form
Time is now: 17th February 2020 - 01:47:00