Welcome Guest ( Log In | Register )

> Thecodontion - Jurassic [ep] (2019), Black/Death Metal
post Mar 21 2019, 15:57:13
Post #1

Serial Uploader
Group Icon
Group: V.I.P
Posts: 37,112
Releases: 35296
From: Lithuania
On Forums: 11 years 9 months
Thanks: 418246 time(s)
Lithuania


(IMG:https://metalarea.org/images/audiocovers/2019_Mar/acov_tid319353_thumb.jpg)

*Artist: Thecodontion
*Album: Jurassic [ep]
*Year: 2019
*Genre: Black/Death Metal
*Country: Italy (IMG:https://metalarea.org/forum/style_images/flags/Italy.png)
*Format: mp3@CBR320kbps
*Size: 22MB

Tracklist:
01. Normannognathus wellnhoferi (Crests) 02:09
02. Rhamphorhynchus muensteri (Wingset) 02:32
03. Barosaurus lentus (Sundance Sea Stratigraphy) 03:12
04. Breviparopus taghbaloutensis (Legacy of the Trackmaker Unknown) 01:30
******************************
Total playing time: 9:23





Technical info
(IMG:https://metalarea.org/images/spectrogram/2019_Mar/d11134bc57f1d59974fc4fbddb1f6ac6.png)
Input File: 02. Rhamphorhynchus Muensteri (Wingset).mp3
Channels : 2
Sample Rate : 44100
Precision : 16-bit
Duration : 00:02:32.07 = 6706287 samples = 11405.2 CDDA sectors
File Size : 6.20M
Bit Rate : 326k
Sample Encoding: MPEG audio (layer I, II or III)
Comments :
Title=Rhamphorhynchus Muensteri (Wingset)
Artist=THECODONTION
Album=Jurassic
Tracknumber=2
Year=2019
Discnumber=1



Register


Go to the top of the page
  Insert nick Quick quote
+Quote Post
 
Start new topic
Replies (1 - 2)
post Jan 17 2020, 07:38:51
Post #2

Правь статус, ####!111
**************
Group: Металариец
Posts: 7,471
Releases: 0
From: Москва
On Forums: 10 years 8 months
Thanks: 13946 time(s)
Russian Federation


Перезалейте плз
Go to the top of the page
  Insert nick Quick quote
+Quote Post
post Jan 17 2020, 20:52:36
Post #3


Group Icon
Group: S-moderation team
Posts: 14,867
Releases: 1440
From: Zagreb
On Forums: 9 years 1 month
Thanks: 65319 time(s)
Croatia


Register


Go to the top of the page
  Insert nick Quick quote
+Quote Post

Reply to this topicStart new topic
1 User(s) are reading this topic (1 Guests and 0 Anonymous Users)
0 Members:

 



- Lo-Fi Version Support form
Copyrights and abuse reports form
Time is now: 7th April 2020 - 08:59:42