Welcome Guest ( Log In | Register )

> И неформату есть предел.

Рэп/хип-хоп/шансон/поп удаляются. Для них есть свои порталы.

> Altın Gün - On (2018), Psychedelic/Folk Rock
post Mar 22 2019, 16:50:52
Post #1

ΕΥΜΕΝΙΔΕΣ
**************
Group: Металариец
Posts: 2,413
Releases: 28
From: Kænugarður
On Forums: 13 years 7 months
Thanks: 3348 time(s)
Ukraine


(IMG:https://metalarea.org/images/audiocovers/2019_Mar/acov_tid319408_thumb.jpg)

*Artist: Altın Gün
*Album: On
*Year: 2018
*Genre: Psychedelic/Folk Rock
*Country: Netherlands (IMG:https://metalarea.org/forum/style_images/flags/Netherlands.png)
*Format: mp3@CBR320kbps
*Size: 89MB

Tracklist:
1. Tatli Dile Guler Yuze 02:44
2. Kirsehirin Gulleri 03:24
3. Goca Dunya 04:00
4. Halkali Seker 03:41
5. Caney 04:41
6. Sad Olup Gulmedim 04:01
7. Cemalim 04:02
8. Cicekler Ekiliyor 03:25
9. Kaymakamın Kizlari 02:52
10. Seker Oglan 06:15
******************************
Total playing time: 39:05

(IMG:https://metalarea.org/images/youtube.png)

Technical info
(IMG:https://metalarea.org/images/spectrogram/2019_Mar/ee319c596a5f17c9cf75f37e9a67f2c0.png)
Input File: 03 - Goca Dunya.mp3
Channels : 2
Sample Rate : 44100
Precision : 16-bit
Duration : 00:04:00.19 = 10592203 samples = 18014 CDDA sectors
File Size : 9.73M
Bit Rate : 324k
Sample Encoding: MPEG audio (layer I, II or III)
Comments :
Title=Goca Dünya
Artist=Altın Gün
Album=On
Tracknumber=03
Year=2018
Genre=Psychedelic/Folk Rock



Register


Go to the top of the page
  Insert nick Quick quote
+Quote Post
 
Start new topic
Replies (1 - 7)
post Mar 23 2019, 10:36:40
Post #2

Два Литра
**
Group: Завсегдатай
Posts: 175
Releases: 0
From: Чуркестан
On Forums: 13 years 2 weeks
Thanks: 17 time(s)
Uzbekistan


ЦИТАТА
Netherlands

У Вас в слове Таджикистан 11 ошибок. Ох уж этот Т9.


Thanks:
Go to the top of the page
  Insert nick Quick quote
+Quote Post
post Mar 23 2019, 12:44:00
Post #3

ΕΥΜΕΝΙΔΕΣ
**************
Group: Металариец
Posts: 2,413
Releases: 28
From: Kænugarður
On Forums: 13 years 7 months
Thanks: 3348 time(s)
Ukraine


ЦИТАТА(zoog @ Mar 23 2019, 11:36:40) *
У Вас в слове Таджикистан 11 ошибок. Ох уж этот Т9.

Охохо, вот это шутеейка.
Go to the top of the page
  Insert nick Quick quote
+Quote Post
post Mar 23 2019, 12:47:30
Post #4

Два Литра
**
Group: Завсегдатай
Posts: 175
Releases: 0
From: Чуркестан
On Forums: 13 years 2 weeks
Thanks: 17 time(s)
Uzbekistan


С Вашей не сравнить, но спасибо)
Go to the top of the page
  Insert nick Quick quote
+Quote Post
post Mar 23 2019, 13:14:25
Post #5

В чистоте и единстве:мысль-слово-дело
**************
Group: Металариец
Posts: 2,449
Releases: 9
From: Киев
On Forums: 13 years 2 months
Thanks: 1456 time(s)
Ukraine


А музыка у них кстати отличная. турецкий психоделик.
Go to the top of the page
  Insert nick Quick quote
+Quote Post
post Apr 1 2019, 19:20:58
Post #6

Правь статус, ####!111
**************
Group: Металариец
Posts: 2,095
Releases: 0
From: Мытищи
On Forums: 12 years 6 months
Thanks: 1263 time(s)
Russian Federation


Вокалист как-то на турка не похож, хоть и на турецком завывает. Но послушать интересно)

Go to the top of the page
  Insert nick Quick quote
+Quote Post
post Apr 1 2019, 19:41:35
Post #7

В чистоте и единстве:мысль-слово-дело
**************
Group: Металариец
Posts: 2,449
Releases: 9
From: Киев
On Forums: 13 years 2 months
Thanks: 1456 time(s)
Ukraine


ЦИТАТА(Mplast @ 1st April 2019 - 21:20:58) *
как-то на турка не похож

ну вот певца зовут Erdinç Ecevit Yildiz. так что турки бывают разные. и светловолосые, голубоглазые далеко не редкость.
девушку зовут Merve Dasdemir то же вроде не сильно турчанка и тем не менее.
Go to the top of the page
  Insert nick Quick quote
+Quote Post
post Apr 1 2019, 19:57:36
Post #8

Два Литра
**
Group: Завсегдатай
Posts: 175
Releases: 0
From: Чуркестан
On Forums: 13 years 2 weeks
Thanks: 17 time(s)
Uzbekistan


Так они ж столетиями имели славян приграничных + рабынь скупали. Напились крови русской.
Go to the top of the page
  Insert nick Quick quote
+Quote Post

Reply to this topicStart new topic
2 User(s) are reading this topic (2 Guests and 0 Anonymous Users)
0 Members:

 



- Lo-Fi Version Support form
Copyrights and abuse reports form
Time is now: 22nd September 2020 - 08:57:37