Welcome Guest ( Log In | Register )

 
Reply to this topicStart new topic
> Yhorm - Corrupted Abyss [demo] (2017), Black Metal
post Mar 26 2019, 16:27:18
Post #1

Serial Uploader
Group Icon
Group: V.I.P
Posts: 35,466
Releases: 33678
From: Lithuania
On Forums: 11 years 2 weeks
Thanks: 386726 time(s)
Lithuania


(IMG:https://metalarea.org/images/audiocovers/2019_Mar/acov_tid319570_thumb.jpg)

*Artist: Yhorm
*Album: Corrupted Abyss [demo]
*Year: 2017
*Genre: Black Metal
*Country: United States (IMG:https://metalarea.org/forum/style_images/flags/United%20States.png)
*Format: mp3@CBR320kbps
*Size: 68MB

Tracklist:
01. The Reclusive King 05:32
02. The Blood Upon My Armor 05:55
03. Satan Is Not Dead 05:28
04. Impaled By The Abyss 06:09
05. We Ride To Our Deaths 06:42
******************************
Total playing time: 29:46



(IMG:https://metalarea.org/images/youtube.png)

Technical info
(IMG:https://metalarea.org/images/spectrogram/2019_Mar/258ffb64a823176947249e5840a06205.png)
Input File: 02. The Blood Upon My Armor.mp3
Channels : 2
Sample Rate : 44100
Precision : 16-bit
Duration : 00:05:55.36 = 15671508 samples = 26652.2 CDDA sectors
File Size : 14.4M
Bit Rate : 324k
Sample Encoding: MPEG audio (layer I, II or III)
Comments :
Title=The Blood Upon My Armor
Artist=Yhorm
Album=Corrupted Abyss
Tracknumber=2
Year=2017



Register


Go to the top of the page
  Insert nick Quick quote
+Quote Post

Reply to this topicStart new topic
1 User(s) are reading this topic (1 Guests and 0 Anonymous Users)
0 Members:

 



- Lo-Fi Version Support form
Copyrights and abuse reports form
Time is now: 24th June 2019 - 13:14:11