Welcome Guest ( Log In | Register )

> Whitechapel - The Valley (2019), Deathcore (D)
post Mar 26 2019, 16:54:41
Post #1

Serial Uploader
Group Icon
Group: V.I.P
Posts: 37,112
Releases: 35296
From: Lithuania
On Forums: 11 years 11 months
Thanks: 419066 time(s)
Lithuania


(IMG:https://metalarea.org/images/audiocovers/2019_Mar/acov_tid319573_thumb.jpg)

*Artist: Whitechapel
*Album: The Valley
*Year: 2019
*Genre: Deathcore
*Country: United States (IMG:https://metalarea.org/forum/style_images/flags/United%20States.png)
*Format: mp3@CBR320kbps
*Size: 100MB

Tracklist:
01. When a Demon Defiles a Witch 05:04
02. Forgiveness Is Weakness 02:55
03. Brimstone 03:25
04. Hickory Creek 04:56
05. Black Bear 03:08
06. We Are One 03:58
07. The Other Side 03:17
08. Third Depth 04:07
09. Lovelace 03:48
10. Doom Wood 05:51
******************************
Total playing time: 40:29

(IMG:https://metalarea.org/images/myspace.png)


(IMG:https://metalarea.org/images/youtube.png)

Technical info
(IMG:https://metalarea.org/images/spectrogram/2019_Mar/9b79e4a36e321aa991617db54de899e6.png)
Input File: 02. Forgiveness Is Weakness.mp3
Channels : 2
Sample Rate : 44100
Precision : 16-bit
Duration : 00:02:55.19 = 7725879 samples = 13139.2 CDDA sectors
File Size : 7.77M
Bit Rate : 355k
Sample Encoding: MPEG audio (layer I, II or III)
Comments :
Title=Forgiveness Is Weakness
Artist=Whitechapel
Album=The Valley
Tracknumber=02
Year=2019
Genre=Deathcore
Discnumber=1/1



Register


Go to the top of the page
  Insert nick Quick quote
+Quote Post
 
Start new topic
Replies (1 - 9)
post Mar 28 2019, 11:03:40
Post #2

Правь статус, ####!111
**************
Group: Металариец
Posts: 46,413
Releases: 716
On Forums: 10 years 11 months
Thanks: 38912 time(s)
Russian Federation


Дэткор давно не в моде у хипстеров.

Go to the top of the page
  Insert nick Quick quote
+Quote Post
post Mar 28 2019, 11:58:30
Post #3

Ледоруб
**************
Group: Металариец
Posts: 25,409
Releases: 0
From: Санкт-Петербург
On Forums: 10 years 8 months
Thanks: 8834 time(s)
Russian Federation


Шляпа же.
Go to the top of the page
  Insert nick Quick quote
+Quote Post
post Mar 29 2019, 14:50:17
Post #4

ядерщик-мясогруз
****
Group: Металариец
Posts: 305
Releases: 5
On Forums: 11 years 3 months
Thanks: 188 time(s)
Russian Federation


отбросим ярлыки! альбом хорош (IMG:style_emoticons/default/20.gif)
Go to the top of the page
  Insert nick Quick quote
+Quote Post
post Mar 29 2019, 15:00:19
Post #5

Правь статус, ####!111
**************
Group: Металариец
Posts: 46,413
Releases: 716
On Forums: 10 years 11 months
Thanks: 38912 time(s)
Russian Federation


ЦИТАТА(Lord_Djaspam @ Mar 29 2019, 17:50:17) *
альбом хорош (IMG:style_emoticons/default/20.gif)


Раз есть дэткор - это неправда!
Go to the top of the page
  Insert nick Quick quote
+Quote Post
post Apr 1 2019, 11:46:45
Post #6

Ледоруб
**************
Group: Металариец
Posts: 25,409
Releases: 0
From: Санкт-Петербург
On Forums: 10 years 8 months
Thanks: 8834 time(s)
Russian Federation


Можно другой обменник? Только не 80-го.
Go to the top of the page
  Insert nick Quick quote
+Quote Post
post Apr 20 2019, 19:58:04
Post #7

Ледоруб
**************
Group: Металариец
Posts: 25,409
Releases: 0
From: Санкт-Петербург
On Forums: 10 years 8 months
Thanks: 8834 time(s)
Russian Federation


Повторяю запрос.
Go to the top of the page
  Insert nick Quick quote
+Quote Post
post Mar 31 2020, 17:24:19
Post #8

FOLK METAL FEVER
**************
Group: Металариец
Posts: 2,080
Releases: 6
From: Kyiv
On Forums: 12 years 6 months
Thanks: 275 time(s)
Ukraine


какой-то аморфный деткор (IMG:style_emoticons/default/smile1.gif) не мое.
Go to the top of the page
  Insert nick Quick quote
+Quote Post
post Mar 31 2020, 17:24:57
Post #9

Ледоруб
**************
Group: Металариец
Posts: 25,409
Releases: 0
From: Санкт-Петербург
On Forums: 10 years 8 months
Thanks: 8834 time(s)
Russian Federation


ЦИТАТА(folker @ 31st March 2020 - 19:24:19) *
аморфный деткор

Любишь активный?
Go to the top of the page
  Insert nick Quick quote
+Quote Post
post May 23 2020, 13:52:14
Post #10

Правь статус, ####!111
**************
Group: Металариец
Posts: 3,339
Releases: 1
From: Рейх
On Forums: 13 years 9 months
Thanks: 897 time(s)
Ukraine


Классный альбом! Серьезный не хипарьский как тут некоторые выражаются
Go to the top of the page
  Insert nick Quick quote
+Quote Post

Reply to this topicStart new topic
2 User(s) are reading this topic (2 Guests and 0 Anonymous Users)
0 Members:

 



- Lo-Fi Version Support form
Copyrights and abuse reports form
Time is now: 28th May 2020 - 08:12:22