Welcome Guest ( Log In | Register )

> Orgasmic Menstruation Bloodcum & Extreme Rotten Shit - Necrophagous Coprophagical Infestation/Scissors Or Nothing [split] (2018), Gorenoise | Goregrind (D4)
post Mar 27 2019, 15:06:16
Post #1

Serial Uploader
Group Icon
Group: V.I.P
Posts: 36,592
Releases: 34781
From: Lithuania
On Forums: 11 years 6 months
Thanks: 407311 time(s)
Lithuania


(IMG:https://metalarea.org/images/audiocovers/2019_Mar/acov_tid319616_thumb.jpg)

*Artist: Orgasmic Menstruation Bloodcum & Extreme Rotten Shit
*Album: Necrophagous Coprophagical Infestation/Scissors Or Nothing [split]
*Year: 2018
*Genre: Gorenoise | Goregrind
*Country: United States (IMG:https://metalarea.org/forum/style_images/flags/United%20States.png) | Brazil (IMG:https://metalarea.org/forum/style_images/flags/Brazil.png)
*Format: mp3@CBR320kbps
*Size: 28MB

Tracklist:
Orgasmic Menstruation Bloodcum:
01. Regurgitated Stench Of Veneral Disease 00:47
02. Worm Infestation In Intestinal Haemorrhage 00:45
03. Facial Necrosis Tumour 01:00
04. Gangrenosum Fermantation Of Grotesque Deformity 01:21
05. Disgorgement Foetal Residues 00:23
06. Ripping The Visceral Verminose Feculent 01:40
Extreme Rotten Shit:
07. Lights And Gore 00:38
08. Unholy Addicted 00:38
09. KxTxFx 00:31
10. AxAx 00:37
11. Brutal Disease 00:53
12. FxCxCx 01:41
******************************
Total playing time: 10:54



Technical info
(IMG:https://metalarea.org/images/spectrogram/2019_Mar/5ba48f2aac930f0a22087888aa6337e2.png)
Input File: 11. Brutal Disease.mp3
Channels : 2
Sample Rate : 44100
Precision : 16-bit
Duration : 00:00:53.11 = 2342107 samples = 3983.18 CDDA sectors
File Size : 2.30M
Bit Rate : 347k
Sample Encoding: MPEG audio (layer I, II or III)
Comments :
Title=Brutal Disease
Artist=Extreme Rotten Shit
Album=Necrophagous Coprophagical Infestation - Scissors Or Nothing
Tracknumber=11
Year=2018



Register


Go to the top of the page
  Insert nick Quick quote
+Quote Post
 
Start new topic
Replies (1 - 1)
post Dec 3 2019, 05:10:49
Post #2

Split Backup Copy
**************
Group: Металариец
Posts: 5,220
Releases: 243
From: с. Мизоново, Ишимский Район, Тюменская область
On Forums: 11 years 11 months
Thanks: 3501 time(s)
Russian Federation


Reupload please
Go to the top of the page
  Insert nick Quick quote
+Quote Post

Reply to this topicStart new topic
2 User(s) are reading this topic (2 Guests and 0 Anonymous Users)
0 Members:

 



- Lo-Fi Version Support form
Copyrights and abuse reports form
Time is now: 11th December 2019 - 03:39:22