Welcome Guest ( Log In | Register )

> 

Здесь релизы с живыми прямыми ссылками на lossless

> Manifestic - Anonymous Souls (2019), Progressive Thrash/Speed Metal
post Mar 28 2019, 13:23:49
Post #1

Правь статус, ####!111
**************
Group: Металариец
Posts: 20,297
Releases: 13832
From: Г.Харьков
On Forums: 7 years 8 months
Thanks: 241902 time(s)
Unknown


(IMG:https://metalarea.org/images/audiocovers/2019_Mar/acov_tid319670_thumb.jpg)

*Artist: Manifestic
*Album: Anonymous Souls
*Year: 2019
*Genre: Progressive Thrash/Speed Metal
*Country: Germany (IMG:https://metalarea.org/forum/style_images/flags/Germany.png)
*Format: mp3@CBR320kbps
*Size: 102MB

Tracklist:
1. Anonymous Souls 05:52
2. Deaf Dumb and Blind 04:43
3. Wide Open 04:47
4. Time Wlll Collapse 07:50
5. Incognito 01:26
6. Spiritual Abyss 02:05
7. Silicon War 03:41
8. Code of Silence 04:27
9. 263 01:15
10. Pillars of Democracy 03:39
11. Poisoned Waters 06:03
******************************
Total playing time: 45:48




Extended info
Tristan Bass
Jerome Drums, Vocals
Rob Guitars (lead), Vocals
Samy Lee Guitars (rhythm)



Technical info
(IMG:https://metalarea.org/images/spectrogram/2019_Mar/8a907482e07fa0bf97e9322a63885f99.png)
Input File: 03 - Wide Open.mp3
Channels : 2
Sample Rate : 44100
Precision : 16-bit
Duration : 00:04:39.50 = 12325906 samples = 20962.4 CDDA sectors
File Size : 11.2M
Bit Rate : 322k
Sample Encoding: MPEG audio (layer I, II or III)
Comments :
Title=Wide Open
Artist=Manifestic
Album=Anonymous Soul
Tracknumber=3
Year=2019
Genre=Metal
Discnumber=1



Register


Go to the top of the page
  Insert nick Quick quote
+Quote Post
 
Start new topic
Replies (1 - 6)
post Mar 28 2019, 14:46:39
Post #2

Правь статус, ####!111
**************
Group: Металариец
Posts: 20,297
Releases: 13832
From: Г.Харьков
On Forums: 7 years 8 months
Thanks: 241902 time(s)
Unknown


Cloud Mail 320
Register


Go to the top of the page
  Insert nick Quick quote
+Quote Post
post Apr 24 2019, 17:51:08
Post #3

Три Литра
***
Group: Завсегдатай
Posts: 282
Releases: 0
From: Kyiv
On Forums: 7 years 9 months
Thanks: 110 time(s)
Ukraine


Отличный релиз, просто замечательный, уже раз 10 по кругу за эти недели.
"Time Wlll Collapse" - крутышка!
Дякую)


Thanks:
Go to the top of the page
  Insert nick Quick quote
+Quote Post
post Apr 24 2019, 18:27:39
Post #4

21st Century Schizoid Man
**************
Group: Металариец
Posts: 6,201
Releases: 76
From: Moscow
On Forums: 11 years 8 months
Thanks: 4947 time(s)
Russian Federation


Если всё так, как в превью, то ням-ням. (IMG:style_emoticons/default/20.gif)
Go to the top of the page
  Insert nick Quick quote
+Quote Post
post Apr 28 2019, 21:17:53
Post #5

21st Century Schizoid Man
**************
Group: Металариец
Posts: 6,201
Releases: 76
From: Moscow
On Forums: 11 years 8 months
Thanks: 4947 time(s)
Russian Federation


Взять в качестве основного тона ранний Kreator, добавить немного раннего же Sodom. Вот рецепт приготовления альбома, который вполне может порвать топ этого года. Много трэша, много спидухи и драйва. Отличный альбом!


Thanks:
Go to the top of the page
  Insert nick Quick quote
+Quote Post
post Dec 3 2019, 17:47:30
Post #6

Семь Литров
*******
Group: Металариец
Posts: 703
Releases: 82
On Forums: 11 years 2 months
Thanks: 1510 time(s)
Russian Federation


FLAC img+cue+log+scans
Register


Thanks:
Go to the top of the page
  Insert nick Quick quote
+Quote Post
post Dec 19 2019, 14:18:34
Post #7

Schuldinerist
**************
Group: Металариец
Posts: 10,455
Releases: 33
From:
On Forums: 12 years 9 months
Thanks: 6607 time(s)
Russian Federation


Отличный трэш, плотный и быстренький, тоже чую, как пахнуло ранним Kreator..
8+/10
Go to the top of the page
  Insert nick Quick quote
+Quote Post

Reply to this topicStart new topic
2 User(s) are reading this topic (2 Guests and 0 Anonymous Users)
0 Members:

 



- Lo-Fi Version Support form
Copyrights and abuse reports form
Time is now: 22nd January 2020 - 02:44:11