Welcome Guest ( Log In | Register )

> Frostveil - Ephemeral Visions (2019), Black Metal (D)
post Mar 30 2019, 20:22:35
Post #1

Мегаманьяк
***********
Group: Металариец
Posts: 1,868
Releases: 1481
From: Prešov
On Forums: 5 years 9 months
Thanks: 36726 time(s)
Slovakia


(IMG:http://metalarea.org/images/audiocovers/2019_Mar/acov_tid319818_thumb.jpg)

*Artist: Frostveil
*Album: Ephemeral Visions
*Year: 2019
*Genre: Black Metal
*Country: Australia (IMG:http://metalarea.org/forum/style_images/flags/Australia.png)
*Format: mp3@CBR320kbps
*Size: 146MB

Tracklist:
1. Echoes of Inexistence 02:51
2. Valiance 05:12
3. Tormented by Life 09:13
4. Orlok 07:58
5. Longing 07:25
6. Writhing in Tender Anguish 10:25
7. Tranquil Reflections 02:20
8. Ephemeral Visions 06:07
9. Salvation 09:33
10. Descent of the Final Cold 02:06
******************************
Total playing time: 1:03:10



Extended info
Dark Adversary Productions - DA084


Technical info
(IMG:http://metalarea.org/images/spectrogram/2019_Mar/7fcd30d23753a28ea4d929f95c73c7e1.png)
Input File: 03. Tormented By Life.mp3
Channels : 2
Sample Rate : 44100
Precision : 16-bit
Duration : 00:09:13.27 = 24398987 samples = 41494.9 CDDA sectors
File Size : 22.3M
Bit Rate : 322k
Sample Encoding: MPEG audio (layer I, II or III)
Comments :
Title=Tormented By Life
Artist=Frostveil
Album=Ephemeral Visions
Tracknumber=03/10
Year=2019
Genre=Black Metal



Register


Go to the top of the page
  Insert nick Quick quote
+Quote Post
 
Start new topic
Replies (1 - 5)
post Mar 30 2019, 20:39:23
Post #2

the faceless one
Group Icon
Group: S-moderation team
Posts: 9,251
Releases: 1900
On Forums: 11 years 5 months
Thanks: 112810 time(s)
Russian Federation


отражение -
Register


Go to the top of the page
  Insert nick Quick quote
+Quote Post
post Mar 30 2019, 22:03:02
Post #3

Четыре Литра
****
Group: Металариец
Posts: 326
Releases: 185
On Forums: 7 years 4 months
Thanks: 4659 time(s)
Unknown


Очень крутой релиз. Мелодичный, атмосферный, жирный, с бравурным налётом таким в стиле пейгана или викинга. Паренёк в свои 20 лет смог сделать очень мощную вещь в одно рыло. Ещё чем-то Pure Wrath напомнило, но это не точно.


Thanks:
Go to the top of the page
  Insert nick Quick quote
+Quote Post
post Mar 31 2019, 11:31:51
Post #4

Четыре Литра
****
Group: Металариец
Posts: 356
Releases: 19
On Forums: 10 years 10 months
Thanks: 421 time(s)
United Kingdom


Хотелось бы более чистого сведения для такой длины треков; ударная волна с басом на 7-9 минут утомляет.
В целом — неплохо.
Go to the top of the page
  Insert nick Quick quote
+Quote Post
post Mar 31 2019, 16:39:58
Post #5

MDM-Thrash Metal
**************
Group: Металариец
Posts: 9,224
Releases: 770
From: Одесса
On Forums: 12 years 5 months
Thanks: 20717 time(s)
Ukraine


Register


Go to the top of the page
  Insert nick Quick quote
+Quote Post
post Jan 15 2020, 11:08:41
Post #6

Литр
*
Group: Подсевший
Posts: 55
Releases: 0
From: г. Нальчик
On Forums: 7 years 1 month
Thanks: 110 time(s)
Russian Federation


Frostveil - Ephemeral Visions (2019), FLAC (tracks), Lossless 388 MB
Register


Thanks:
Go to the top of the page
  Insert nick Quick quote
+Quote Post

Reply to this topicStart new topic
2 User(s) are reading this topic (2 Guests and 0 Anonymous Users)
0 Members:

 



- Lo-Fi Version Support form
Copyrights and abuse reports form
Time is now: 29th January 2020 - 00:27:00