Welcome Guest ( Log In | Register )

> Benighted In Sodom - Do Not Go Gently Into That Good Night (2019), Atmospheric Black Metal (D)
post Apr 3 2019, 20:55:46
Post #1

Время Мары
**************
Group: Металариец
Posts: 3,054
Releases: 398
From: Харьков
On Forums: 10 years 1 month
Thanks: 7757 time(s)
Ukraine


(IMG:http://metalarea.org/images/audiocovers/2019_Apr/acov_tid320020_thumb.jpg)

*Artist: Benighted In Sodom
*Album: Do Not Go Gently Into That Good Night
*Year: 2019
*Genre: Atmospheric Black Metal
*Country: United States (IMG:http://metalarea.org/forum/style_images/flags/United%20States.png)
*Format: mp3@CBR320kbps
*Size: 167MB

Tracklist:
1. Even The Nice Things
2. Meander
3. Never Trust An Apparition
4. Melancholy Infatuation Withdrawal
5. No Heaven
6. Summerlands
7. Sometimes I Don't Mind
8. When It Gets Dark
9. Hospital Windows
******************************
Total playing time: 1:12:03

Technical info
(IMG:http://metalarea.org/images/spectrogram/2019_Apr/03528bbcfb8b068a65c9e192c467c804.png)
Input File: Benighted in Sodom - Do Not Go Gently Into That Good Night - 05 No Heaven.mp3
Channels : 2
Sample Rate : 44100
Precision : 16-bit
Duration : 00:07:23.22 = 19545914 samples = 33241.4 CDDA sectors
File Size : 17.9M
Bit Rate : 322k
Sample Encoding: MPEG audio (layer I, II or III)
Comments :
Title=No Heaven
Artist=Benighted in Sodom
Album=Do Not Go Gently Into That Good Night
Tracknumber=5
Year=2019



Register


Go to the top of the page
  Insert nick Quick quote
+Quote Post
 
Start new topic
Replies (1 - 4)
post Apr 3 2019, 21:50:32
Post #2

надёрганый по кусочкам
**************
Group: Металариец
Posts: 2,889
Releases: 0
On Forums: 3 years 5 months
Thanks: 1682 time(s)
Unknown


если взять каждый в отдельности мотив, то он неплох, но в целом совокупность так себе.
короче. он их просто совокупляет и всё. как во второй Многоножке.
драммашиной, скотчем, степлером, и излишним треммоло.
Go to the top of the page
  Insert nick Quick quote
+Quote Post
post Apr 4 2019, 05:46:24
Post #3

Morbid Angel
**************
Group: Металариец
Posts: 4,166
Releases: 0
From: Литва г.Клайпеда
On Forums: 12 years 4 months
Thanks: 1773 time(s)
Lithuania




Thanks:
Go to the top of the page
  Insert nick Quick quote
+Quote Post
post Apr 4 2019, 06:53:48
Post #4


**************
Group: Металариец
Posts: 2,002
Releases: 14
From: Казань
On Forums: 9 years 10 months
Thanks: 2568 time(s)
Russian Federation


Это очень хорошие песни, но они zaeбали(ↄ)
Go to the top of the page
  Insert nick Quick quote
+Quote Post
post May 13 2019, 19:05:52
Post #5

ретроград
**************
Group: Металариец
Posts: 4,772
Releases: 177
On Forums: 12 years 4 weeks
Thanks: 6992 time(s)
Vatican City


Какое то наплевательское отношение к изданию диска. Трэки с довольно высокой разницей уровня записи, да еще расположены практически в шахматном порядке... После тихого трэка получаешь удар по ушам... и так несколько раз. Хз, может так и задумывалось?
Go to the top of the page
  Insert nick Quick quote
+Quote Post

Reply to this topicStart new topic
2 User(s) are reading this topic (2 Guests and 0 Anonymous Users)
0 Members:

 



- Lo-Fi Version Support form
Copyrights and abuse reports form
Time is now: 18th July 2019 - 05:30:15