Welcome Guest ( Log In | Register )

> Frozen Soul - Encased In Ice [demo] (2019), Old School Death Metal
post Apr 8 2019, 11:49:57
Post #1

Правь статус, ####!111
**************
Group: Металариец
Posts: 24,625
Releases: 17444
From: Г.Харьков
On Forums: 8 years 8 months
Thanks: 336787 time(s)
Unknown


(IMG:https://metalarea.org/images/audiocovers/2019_Apr/acov_tid320244_thumb.jpg)

*Artist: Frozen Soul
*Album: Encased In Ice [demo]
*Year: 2019
*Genre: Old School Death Metal
*Country: United States (IMG:https://metalarea.org/forum/style_images/flags/United%20States.png)
*Format: mp3@CBR320kbps
*Size: 35MB

Tracklist:
1. Encased in Ice 04:28
2. Hand of Vengeance 03:51
3. Witches’ Coven (Mortician cover) 03:12
4. Merciless 03:37
******************************
Total playing time: 15:08




Extended info
Samantha Mobley Bass
Brady Trip Drums
See also: ex-Creeping Death, ex-Estonia 1944, ex-Pulled Under
Michael Munday Guitars
See also: ex-Disencumbrance, ex-Wildspeaker, ex-Contusions
Daniel Schmuck Guitars
See also: ex-Violent Exit
Chad Green Vocals


Technical info
(IMG:https://metalarea.org/images/spectrogram/2019_Apr/513ddeeda0e25d28c5478d720145b62a.png)
Input File: 02 - Hand of Vengeance.mp3
Channels : 2
Sample Rate : 44100
Precision : 16-bit
Duration : 00:03:51.38 = 10203814 samples = 17353.4 CDDA sectors
File Size : 9.37M
Bit Rate : 324k
Sample Encoding: MPEG audio (layer I, II or III)
Comments :
Title=Hand of Vengeance
Artist=Frozen Soul
Album=Encased in Ice
Tracknumber=2
Year=2019
Genre=Metal
Discnumber=1



Register


Go to the top of the page
  Insert nick Quick quote
+Quote Post
 
Start new topic
Replies (1 - 2)
post Apr 13 2019, 18:01:26
Post #2

Четыре Литра
****
Group: Металариец
Posts: 343
Releases: 0
On Forums: 3 years 1 month
Thanks: 63 time(s)
Unknown


Like the sound, thanks.
Go to the top of the page
  Insert nick Quick quote
+Quote Post
post Jan 13 2021, 22:25:56
Post #3

Правь статус, ####!111
**************
Group: Металариец
Posts: 7,240
Releases: 165
From: URUGUAY
On Forums: 14 years 3 months
Thanks: 20913 time(s)
Uruguay


320
Register


Thanks:
Go to the top of the page
  Insert nick Quick quote
+Quote Post

Reply to this topicStart new topic
1 User(s) are reading this topic (1 Guests and 0 Anonymous Users)
0 Members:

 



- Lo-Fi Version Support form
Copyrights and abuse reports form
Time is now: 22nd January 2021 - 07:14:03