Welcome Guest ( Log In | Register )

> Releases Upload / Добавление релизов

Добавить релиз тут / Click here to add release
Рекомендованные обменники / Recommended file shares

> Ketzer - Cloud Collider (2019), Progressive Black/Thrash Metal
post Apr 11 2019, 11:55:54
Post #1

Правь статус, ####!111
**************
Group: Металариец
Posts: 16,663
Releases: 11311
From: Г.Харьков
On Forums: 6 years 11 months
Thanks: 188618 time(s)
Unknown


(IMG:https://metalarea.org/images/audiocovers/2019_Apr/acov_tid320370_thumb.jpg)

*Artist: Ketzer
*Album: Cloud Collider
*Year: 2019
*Genre: Progressive Black/Thrash Metal
*Country: Germany (IMG:https://metalarea.org/forum/style_images/flags/Germany.png)
*Format: mp3@CBR320kbps
*Size: 98MB

Tracklist:
1. The Machine 01:17
2. Keine Angst 05:25
3. Walls 04:34
4. Cloud Collider 05:38
5. Forever Death 01:26
6. The Wind Brings Them Horses 03:54
7. No Stories Left 04:52
8. This Knife Won't Stay Clean Today 04:09
9. (The Taste of) Rust and Bone 04:54
10. Light Dies Last 06:26
******************************
Total playing time: 42:35




Extended info
Necroculto Bass
Desecratör Drums
See also: ex-Diabolical Imperium
Executor Guitars
See also: Zarathustra (live)
Sinner Guitars
Infernal Destroyer Vocals


Technical info
(IMG:https://metalarea.org/images/spectrogram/2019_Apr/d21adf482767d76bfa2cf0262e0b88a0.png)
Input File: 4 - Cloud Collider.mp3
Channels : 2
Sample Rate : 44100
Precision : 16-bit
Duration : 00:05:38.28 = 14918060 samples = 25370.9 CDDA sectors
File Size : 13.6M
Bit Rate : 322k
Sample Encoding: MPEG audio (layer I, II or III)
Comments :
Title=Cloud Collider
Artist=Ketzer
Album=Cloud Collider
Tracknumber=4
Year=2019
Genre=Metal
Discnumber=1



Register


Go to the top of the page
  Insert nick Quick quote
+Quote Post
 
Start new topic
Replies (1 - 3)
post Apr 11 2019, 13:38:48
Post #2

Правь статус, ####!111
**************
Group: Металариец
Posts: 16,663
Releases: 11311
From: Г.Харьков
On Forums: 6 years 11 months
Thanks: 188618 time(s)
Unknown


Cloud Mail 320
Register


Go to the top of the page
  Insert nick Quick quote
+Quote Post
post Apr 15 2019, 10:14:44
Post #3

Два Литра
**
Group: Завсегдатай
Posts: 192
Releases: 0
From: Ташкент
On Forums: 11 years 2 months
Thanks: 41 time(s)
Uzbekistan


Официальное видео 2019
Go to the top of the page
  Insert nick Quick quote
+Quote Post
post Apr 16 2019, 06:08:54
Post #4

Crush! Kill! Destroy!
**************
Group: Металариец
Posts: 4,911
Releases: 15
From: Kaliningrad
On Forums: 11 years 5 months
Thanks: 4494 time(s)
Russian Federation


Великолепный альбом!
Go to the top of the page
  Insert nick Quick quote
+Quote Post

Reply to this topicStart new topic
2 User(s) are reading this topic (2 Guests and 0 Anonymous Users)
0 Members:

 



- Lo-Fi Version Support form
Copyrights and abuse reports form
Time is now: 20th April 2019 - 13:14:03