Welcome Guest ( Log In | Register )

> Правила / Rules

Тут только для чтения лежат низкобитрейтные (<192kbps) релизы, для которых есть аналоги в высокобитрейтных форумах.

Here goes (and stand in read only mode) low bitrate releases (<192kbps) which were already replaced by high bitrate releases in corresponding forums.

> Ethereal Dawn - Wish (2019), Melodic Power/Folk Metal
post Apr 11 2019, 16:10:18
Post #1

Мегаманьяк
***********
Group: Металариец
Posts: 1,692
Releases: 1464
From: Одесса
On Forums: 10 years 10 months
Thanks: 11942 time(s)
Ukraine


(IMG:http://metalarea.org/images/audiocovers/2019_Apr/acov_tid320407_thumb.jpg)

*Artist: Ethereal Dawn
*Album: Wish
*Year: 2019
*Genre: Melodic Power/Folk Metal
*Country: Sweden (IMG:http://metalarea.org/forum/style_images/flags/Sweden.png)
*Format: mp3@CBR128kbps (IMG:http://metalarea.org/images/bit_low.gif)
*Size: 37MB

Tracklist:
1. Wish 06:50
2. My Serenity 05:55
3. Tears of the Sun 04:12
4. The Final Moment 06:23
5. Paradise 05:29
6. Life 05:35
7. Behind Your Eyes (Remake) 04:44
******************************
Total playing time: 39:08



Extended info
Line - up:

Marcus Ek - Vocals, Guitars (ex-Exilion, ex-An Abstract Illusion)


Technical info
(IMG:http://metalarea.org/images/spectrogram/2019_Apr/40e3eeec341d8460e73419e4aea00bde.png)
Input File: 04 - The Final Moment.mp3
Channels : 2
Sample Rate : 44100
Precision : 16-bit
Duration : 00:06:23.31 = 16904059 samples = 28748.4 CDDA sectors
File Size : 6.20M
Bit Rate : 129k
Sample Encoding: MPEG audio (layer I, II or III)
Comments :
Title=The Final Moment
Artist=Ethereal Dawn
Album=Wish
Tracknumber=4
Year=2019
Genre=Melodic Power / Folk Metal



Register


Go to the top of the page
  Insert nick Quick quote
+Quote Post
 
Start new topic
Replies (1 - 1)
post Apr 12 2019, 10:05:08
Post #2

Два Литра
**
Group: Завсегдатай
Posts: 100
Releases: 1
On Forums: 13 years 3 weeks
Thanks: 28 time(s)
Russian Federation


В музыке чтото шевелтися. То ли луна, то ли море, то ли капинан был пьян. Послушаем еще раз.
Go to the top of the page
  Insert nick Quick quote
+Quote Post

Причина закрытия (Borderline1991 13-04-2019): Ethereal Dawn - Wish (2019)
Closed TopicStart new topic
2 User(s) are reading this topic (2 Guests and 0 Anonymous Users)
0 Members:

 



- Lo-Fi Version Support form
Copyrights and abuse reports form
Time is now: 20th April 2019 - 14:04:28