Welcome Guest ( Log In | Register )

> И неформату есть предел.

Рэп/хип-хоп/шансон/поп удаляются. Для них есть свои порталы.

> Synthapex - Gone This Night [single] (2019), Synthwave/Retrowave
post Apr 12 2019, 07:51:42
Post #1

Правь статус, ####!111
**************
Group: Металариец
Posts: 2,230
Releases: 31
From: Nakhodka
On Forums: 8 years 11 months
Thanks: 1892 time(s)
Russian Federation


(IMG:http://metalarea.org/images/audiocovers/2019_Apr/acov_tid320424_thumb.jpg)

*Artist: Synthapex
*Album: Gone This Night [single]
*Year: 2019
*Genre: Synthwave/Retrowave
*Country: Russian Federation (IMG:http://metalarea.org/forum/style_images/flags/Russian%20Federation.png)
*Format: mp3@CBR320kbps
*Size: 10MB

Tracklist:
1. Gone This Night
******************************
Total playing time: 4:34

Extended info
Ретровейв из Владивостока.


Technical info
(IMG:http://metalarea.org/images/spectrogram/2019_Apr/1c35926a80d5bd694127e2ec00f44a05.png)
Input File: Synthapex - Gone This Night.mp3
Channels : 2
Sample Rate : 44100
Precision : 16-bit
Duration : 00:04:34.46 = 12103554 samples = 20584.3 CDDA sectors
File Size : 11.1M
Bit Rate : 325k
Sample Encoding: MPEG audio (layer I, II or III)
Comments :
Title=Gone This Night
Artist=Synthapex
Album=Gone This Night
Year=2019



Register


Thanks:
Go to the top of the page
  Insert nick Quick quote
+Quote Post
 
Start new topic
Replies (1 - 6)
post Apr 15 2019, 20:35:29
Post #2

Ёлд ХеллоВяйне
Group Icon
Group: V.I.P
Posts: 27,094
Releases: 131
From: Питер
On Forums: 12 years 6 months
Thanks: 15135 time(s)
Russian Federation


Go to the top of the page
  Insert nick Quick quote
+Quote Post
post Apr 18 2019, 08:03:15
Post #3

Три Литра
***
Group: Завсегдатай
Posts: 256
Releases: 4
On Forums: 12 years 1 month
Thanks: 208 time(s)
Russian Federation


чего-то сильно не понравилось (IMG:style_emoticons/default/22.gif)

синтвейв/ретровейв хотите, слушайте The Midnight. Я так делаю.
Go to the top of the page
  Insert nick Quick quote
+Quote Post
post Apr 23 2019, 13:22:28
Post #4

Правь статус, ####!111
**************
Group: Металариец
Posts: 2,230
Releases: 31
From: Nakhodka
On Forums: 8 years 11 months
Thanks: 1892 time(s)
Russian Federation


Клип.
Go to the top of the page
  Insert nick Quick quote
+Quote Post
post Apr 23 2019, 13:55:59
Post #5

Маньяк
**********
Group: Металариец
Posts: 1,358
Releases: 0
On Forums: 10 years 2 months
Thanks: 488 time(s)
Antarctica


Вот это лучше:
Go to the top of the page
  Insert nick Quick quote
+Quote Post
post Apr 23 2019, 21:35:12
Post #6

Ёлд ХеллоВяйне
Group Icon
Group: V.I.P
Posts: 27,094
Releases: 131
From: Питер
On Forums: 12 years 6 months
Thanks: 15135 time(s)
Russian Federation


А это ещё лучше:

Go to the top of the page
  Insert nick Quick quote
+Quote Post
post Apr 24 2019, 09:16:06
Post #7

Маньяк
**********
Group: Металариец
Posts: 1,358
Releases: 0
On Forums: 10 years 2 months
Thanks: 488 time(s)
Antarctica


ЦИТАТА(Old Vyaine @ 23rd April 2019 - 23:35:12) *
А это ещё лучше:

Неплохо.
ЦИТАТА(goxther @ 18th April 2019 - 10:03:15) *
The Midnight

Вот это просто шикарно!
Go to the top of the page
  Insert nick Quick quote
+Quote Post

Reply to this topicStart new topic
1 User(s) are reading this topic (1 Guests and 0 Anonymous Users)
0 Members:

 



- Lo-Fi Version Support form
Copyrights and abuse reports form
Time is now: 24th May 2019 - 08:35:38