Welcome Guest ( Log In | Register )

> Dezaster - No Surrender (2019), Thrash Metal
post Apr 13 2019, 09:35:40
Post #1

Правь статус, ####!111
**************
Group: Металариец
Posts: 20,297
Releases: 13832
From: Г.Харьков
On Forums: 7 years 8 months
Thanks: 241902 time(s)
Unknown


(IMG:https://metalarea.org/images/audiocovers/2019_Apr/acov_tid320480_thumb.jpg)

*Artist: Dezaster
*Album: No Surrender
*Year: 2019
*Genre: Thrash Metal
*Country: Singapore (IMG:https://metalarea.org/forum/style_images/flags/Singapore.png)
*Format: mp3@CBR320kbps
*Size: 119MB

Tracklist:
1. Awakened By Reality
2. The Touch Of Death
3. Fist Of Power
4. Toxic Community
5. Soul Bearer
6. No Surrender
7. Dreams Of Succubus
8. Spiritual Realm
9. Fool's Terrain
10. Red Alert
11. Bloodsucker
******************************
Total playing time: 51:16




Extended info
Brandon John Guitars, Vocals
Raimy Rashid Guitars, Vocals (backing)
Kim Evangelista Bass, Vocals (backing) (2018-present)
See also: Zero Fall Gravity
Denise Yeow Drums (2018-present)
See also: Zero Fall Gravity


Technical info
(IMG:https://metalarea.org/images/spectrogram/2019_Apr/99c27c23f4baea593a5e21b5c331e141.png)
Input File: 03 - Fist of Power.mp3
Channels : 2
Sample Rate : 44100
Precision : 16-bit
Duration : 00:04:46.68 = 12642720 samples = 21501.2 CDDA sectors
File Size : 11.7M
Bit Rate : 326k
Sample Encoding: MPEG audio (layer I, II or III)
Comments :
Title=Fist of Power
Artist=Dezaster
Album=No Surrender
Tracknumber=3
Year=2019



Register


Go to the top of the page
  Insert nick Quick quote
+Quote Post
 
Start new topic
Replies (1 - 5)
post Apr 13 2019, 17:45:11
Post #2

Два Литра
**
Group: Завсегдатай
Posts: 192
Releases: 5
On Forums: 7 years 10 months
Thanks: 276 time(s)
Ukraine


The vocal is annoying.
Go to the top of the page
  Insert nick Quick quote
+Quote Post
post Apr 13 2019, 18:59:29
Post #3

Правь статус, ####!111
**************
Group: Металариец
Posts: 20,297
Releases: 13832
From: Г.Харьков
On Forums: 7 years 8 months
Thanks: 241902 time(s)
Unknown


Cloud Mail 320
Register


Go to the top of the page
  Insert nick Quick quote
+Quote Post
post Apr 13 2019, 19:06:29
Post #4

Три Литра
***
Group: Завсегдатай
Posts: 282
Releases: 0
From: Kyiv
On Forums: 7 years 9 months
Thanks: 110 time(s)
Ukraine


Норм трясучка, подякував)


Thanks:
Go to the top of the page
  Insert nick Quick quote
+Quote Post
post Apr 14 2019, 11:29:59
Post #5

hearer & reader
**************
Group: Металариец
Posts: 8,288
Releases: 113
From: Moscow
On Forums: 12 years 4 months
Thanks: 7884 time(s)
Russian Federation



Кстати, очень неплохо. Играет их гитарист куда лучше, чем поёт. Или второй гитарист..
Плюс...(IMG:https://i.ibb.co/PwJM5cV/Denise-Yeow.jpg)
Go to the top of the page
  Insert nick Quick quote
+Quote Post
post Apr 23 2019, 08:34:55
Post #6

MDM-Thrash Metal
**************
Group: Металариец
Posts: 9,203
Releases: 767
From: Одесса
On Forums: 12 years 5 months
Thanks: 20660 time(s)
Ukraine


ЦИТАТА(AHBAnep @ Apr 14 2019, 13:29:59) *

Кстати, очень неплохо.

Согласен, сыграно неплохо. Но вот вокал и манера исполнения...
Go to the top of the page
  Insert nick Quick quote
+Quote Post

Reply to this topicStart new topic
2 User(s) are reading this topic (2 Guests and 0 Anonymous Users)
0 Members:

 



- Lo-Fi Version Support form
Copyrights and abuse reports form
Time is now: 22nd January 2020 - 02:45:00