Welcome Guest ( Log In | Register )

> Brainblast - Primal Impulse [ep] (2019), Progressive/Technical Death Metal
post Apr 13 2019, 10:23:13
Post #1

Правь статус, ####!111
**************
Group: Металариец
Posts: 20,294
Releases: 13831
From: Г.Харьков
On Forums: 7 years 8 months
Thanks: 241797 time(s)
Unknown


(IMG:https://metalarea.org/images/audiocovers/2019_Apr/acov_tid320482_thumb.jpg)

*Artist: Brainblast
*Album: Primal Impulse [ep]
*Year: 2019
*Genre: Progressive/Technical Death Metal
*Country: Colombia (IMG:https://metalarea.org/forum/style_images/flags/Colombia.png)
*Format: mp3@CBR320kbps
*Size: 54MB

Tracklist:
1. Primal Impulse 06:11
2. The Golden Age of Wisdom 06:09
3. Unbretheable Athmosphere 05:19
4. Dextrorotatory Gammadion 05:22
******************************
Total playing time: 23:01




Extended info
Edd Jiménez - Songwritting, Composition, Guitar & Drum recording
Angel Hernandez - Voice & Lyrics
Sebastian Garcia - Guitar recording


Technical info
(IMG:https://metalarea.org/images/spectrogram/2019_Apr/86102f10f81125dfd001ad71b4d54e58.png)
Input File: 02. The Golden Age of Wisdom.mp3
Channels : 2
Sample Rate : 44100
Precision : 16-bit
Duration : 00:06:09.08 = 16276472 samples = 27681.1 CDDA sectors
File Size : 15.1M
Bit Rate : 328k
Sample Encoding: MPEG audio (layer I, II or III)
Comments :
Title=The Golden Age of Wisdom
Artist=Brainblast
Album=Primal Impulse
Tracknumber=02
Year=2019
Genre=Metal



Register


Go to the top of the page
  Insert nick Quick quote
+Quote Post
 
Start new topic
Replies (1 - 9)
post Apr 13 2019, 19:05:49
Post #2

Group: Подсевший
Posts: 38
Releases: 0
From: Belarus
On Forums: 9 years 6 months
Thanks: 13 time(s)
Belarus


Очень давно ждал! Обскура метал!


Thanks:
Go to the top of the page
  Insert nick Quick quote
+Quote Post
post Apr 14 2019, 11:24:44
Post #3

hearer & reader
**************
Group: Металариец
Posts: 8,288
Releases: 113
From: Moscow
On Forums: 12 years 4 months
Thanks: 7884 time(s)
Russian Federation


Чертовски перспективная команда!
Go to the top of the page
  Insert nick Quick quote
+Quote Post
post Apr 15 2019, 09:48:41
Post #4

Три Литра
***
Group: Завсегдатай
Posts: 220
Releases: 0
From: Минск
On Forums: 8 years 8 months
Thanks: 139 time(s)
Russian Federation


Черт подери! Услада для ушей, бальзам для души.
Go to the top of the page
  Insert nick Quick quote
+Quote Post
post Apr 16 2019, 18:32:52
Post #5

Сектант технодро4чер
**************
Group: Металариец
Posts: 5,511
Releases: 143
From: Тимчасово окупована територія
On Forums: 11 years 5 months
Thanks: 5759 time(s)
Ukraine


Мегашикардос!
Go to the top of the page
  Insert nick Quick quote
+Quote Post
post Apr 17 2019, 08:44:38
Post #6

Мегаманьяк
***********
Group: Металариец
Posts: 1,789
Releases: 0
From: Харьков
On Forums: 10 years 3 months
Thanks: 773 time(s)
Ukraine


Послушаю, раз так хвалите. Тем более, ипишка.
Go to the top of the page
  Insert nick Quick quote
+Quote Post
post Apr 21 2019, 20:05:20
Post #7

на 1/3 БМЗ
********
Group: Металариец
Posts: 825
Releases: 105
From: Санкт-Петербург
On Forums: 12 years 9 months
Thanks: 3872 time(s)
Russian Federation


Ценности релиза не понял, как любого релиза, являющегося клоном любой именитый группы. Впрочем, переслушаю, бывало что и такое цепляло.
Go to the top of the page
  Insert nick Quick quote
+Quote Post
post Apr 21 2019, 22:31:39
Post #8

Group: Подсевший
Posts: 31
Releases: 0
On Forums: 1 year 2 months
Thanks: 23 time(s)
Unknown


ЦИТАТА(Nomore @ Apr 13 2019, 19:05:49) *
Очень давно ждал! Обскура метал!

Типа вторичность второго порядка?


Thanks:
(1) Deze,
Go to the top of the page
  Insert nick Quick quote
+Quote Post
post May 6 2019, 13:56:42
Post #9

Schuldinerist
**************
Group: Металариец
Posts: 10,455
Releases: 33
From:
On Forums: 12 years 9 months
Thanks: 6607 time(s)
Russian Federation


Очень не плохо для дебюта из Колумбии. Убедительно играют.
9/10


Thanks:
Go to the top of the page
  Insert nick Quick quote
+Quote Post
post May 6 2019, 14:06:30
Post #10

Правь статус (ну неее... лень-матушка)
**************
Group: Металариец
Posts: 11,898
Releases: 0
From: Киев
On Forums: 12 years 23 hours
Thanks: 6837 time(s)
Unknown


ЦИТАТА(Johnix @ Apr 22 2019, 00:05:20) *
Ценности релиза не понял, как любого релиза, являющегося клоном любой именитый группы.

Особенно в том случае, когда и клонируемая команда не бог весть какая самостоятельная)))
Go to the top of the page
  Insert nick Quick quote
+Quote Post

Reply to this topicStart new topic
2 User(s) are reading this topic (2 Guests and 0 Anonymous Users)
0 Members:

 



- Lo-Fi Version Support form
Copyrights and abuse reports form
Time is now: 21st January 2020 - 17:46:39