Welcome Guest ( Log In | Register )

> Brainblast - Primal Impulse [ep] (2019), Progressive/Technical Death Metal
post Apr 13 2019, 10:23:13
Post #1

Правь статус, ####!111
**************
Group: Металариец
Posts: 18,148
Releases: 12274
From: Г.Харьков
On Forums: 7 years 3 months
Thanks: 206851 time(s)
Unknown


(IMG:https://metalarea.org/images/audiocovers/2019_Apr/acov_tid320482_thumb.jpg)

*Artist: Brainblast
*Album: Primal Impulse [ep]
*Year: 2019
*Genre: Progressive/Technical Death Metal
*Country: Colombia (IMG:https://metalarea.org/forum/style_images/flags/Colombia.png)
*Format: mp3@CBR320kbps
*Size: 54MB

Tracklist:
1. Primal Impulse 06:11
2. The Golden Age of Wisdom 06:09
3. Unbretheable Athmosphere 05:19
4. Dextrorotatory Gammadion 05:22
******************************
Total playing time: 23:01




Extended info
Edd Jiménez - Songwritting, Composition, Guitar & Drum recording
Angel Hernandez - Voice & Lyrics
Sebastian Garcia - Guitar recording


Technical info
(IMG:https://metalarea.org/images/spectrogram/2019_Apr/86102f10f81125dfd001ad71b4d54e58.png)
Input File: 02. The Golden Age of Wisdom.mp3
Channels : 2
Sample Rate : 44100
Precision : 16-bit
Duration : 00:06:09.08 = 16276472 samples = 27681.1 CDDA sectors
File Size : 15.1M
Bit Rate : 328k
Sample Encoding: MPEG audio (layer I, II or III)
Comments :
Title=The Golden Age of Wisdom
Artist=Brainblast
Album=Primal Impulse
Tracknumber=02
Year=2019
Genre=Metal



Register


Go to the top of the page
  Insert nick Quick quote
+Quote Post
 
Start new topic
Replies (1 - 9)
post Apr 13 2019, 19:05:49
Post #2

Group: Подсевший
Posts: 36
Releases: 0
From: Belarus
On Forums: 9 years 1 month
Thanks: 11 time(s)
Belarus


Очень давно ждал! Обскура метал!


Thanks:
Go to the top of the page
  Insert nick Quick quote
+Quote Post
post Apr 14 2019, 11:24:44
Post #3

hearer & reader
**************
Group: Металариец
Posts: 7,952
Releases: 103
From: Moscow
On Forums: 11 years 11 months
Thanks: 7455 time(s)
Russian Federation


Чертовски перспективная команда!
Go to the top of the page
  Insert nick Quick quote
+Quote Post
post Apr 15 2019, 09:48:41
Post #4

Три Литра
***
Group: Завсегдатай
Posts: 215
Releases: 0
From: Минск
On Forums: 8 years 3 months
Thanks: 139 time(s)
Russian Federation


Черт подери! Услада для ушей, бальзам для души.
Go to the top of the page
  Insert nick Quick quote
+Quote Post
post Apr 16 2019, 18:32:52
Post #5

Сектант технодро4чер
**************
Group: Металариец
Posts: 5,448
Releases: 143
From: Тимчасово окупована територія
On Forums: 10 years 11 months
Thanks: 5665 time(s)
Ukraine


Мегашикардос!
Go to the top of the page
  Insert nick Quick quote
+Quote Post
post Apr 17 2019, 08:44:38
Post #6

Маньяк
**********
Group: Металариец
Posts: 1,433
Releases: 0
From: Харьков
On Forums: 9 years 10 months
Thanks: 534 time(s)
Ukraine


Послушаю, раз так хвалите. Тем более, ипишка.
Go to the top of the page
  Insert nick Quick quote
+Quote Post
post Apr 21 2019, 20:05:20
Post #7

на 1/3 БМЗ
*******
Group: Металариец
Posts: 751
Releases: 105
From: Санкт-Петербург
On Forums: 12 years 4 months
Thanks: 3783 time(s)
Russian Federation


Ценности релиза не понял, как любого релиза, являющегося клоном любой именитый группы. Впрочем, переслушаю, бывало что и такое цепляло.
Go to the top of the page
  Insert nick Quick quote
+Quote Post
post Apr 21 2019, 22:31:39
Post #8

Group: Подсевший
Posts: 31
Releases: 0
On Forums: 9 months 1 week
Thanks: 23 time(s)
Unknown


ЦИТАТА(Nomore @ Apr 13 2019, 19:05:49) *
Очень давно ждал! Обскура метал!

Типа вторичность второго порядка?


Thanks:
(1) Deze,
Go to the top of the page
  Insert nick Quick quote
+Quote Post
post May 6 2019, 13:56:42
Post #9

Schuldinerist
**************
Group: Металариец
Posts: 10,296
Releases: 33
From:
On Forums: 12 years 4 months
Thanks: 6426 time(s)
Russian Federation


Очень не плохо для дебюта из Колумбии. Убедительно играют.
9/10


Thanks:
Go to the top of the page
  Insert nick Quick quote
+Quote Post
post May 6 2019, 14:06:30
Post #10

Правь статус (ну неее... лень-матушка)
**************
Group: Металариец
Posts: 10,485
Releases: 0
From: Киев
On Forums: 11 years 6 months
Thanks: 5831 time(s)
Unknown


ЦИТАТА(Johnix @ Apr 22 2019, 00:05:20) *
Ценности релиза не понял, как любого релиза, являющегося клоном любой именитый группы.

Особенно в том случае, когда и клонируемая команда не бог весть какая самостоятельная)))
Go to the top of the page
  Insert nick Quick quote
+Quote Post

Reply to this topicStart new topic
2 User(s) are reading this topic (2 Guests and 0 Anonymous Users)
0 Members:

 



- Lo-Fi Version Support form
Copyrights and abuse reports form
Time is now: 20th August 2019 - 21:11:09