Welcome Guest ( Log In | Register )

> Releases Upload / Добавление релизов

Добавить релиз тут / Click here to add release
Рекомендованные обменники / Recommended file shares

> Bible Of The Devil - Feel It (2019), Heavy Metal (D)
post Apr 13 2019, 19:22:21
Post #1

Правь статус, ####!111
**************
Group: Металариец
Posts: 16,663
Releases: 11311
From: Г.Харьков
On Forums: 6 years 11 months
Thanks: 188618 time(s)
Unknown


(IMG:https://metalarea.org/images/audiocovers/2019_Apr/acov_tid320505_thumb.jpg)

*Artist: Bible Of The Devil
*Album: Feel It
*Year: 2019
*Genre: Heavy Metal
*Country: United States (IMG:https://metalarea.org/forum/style_images/flags/United%20States.png)
*Format: mp3@CBR320kbps
*Size: 95MB

Tracklist:
1. The Light 01:29
2. Ride Steel 04:46
3. (Love At) The Speed of Night 04:50
4. Lifeline 04:34
5. Idle Time 05:51
6. Iron Eagle 05:15
7. Hard Club 02:55
8. The Downtown Boogie 05:33
9. Ultra Boys 05:53
******************************
Total playing time: 41:06




Extended info
Greg Spalding Drums (1999-present)
Nate Perry Guitars, Vocals (2002-present)
See also: Knife of Simpson
Darren Amaya Bass, Vocals (2003-present)
Chris Grubbs Guitars (2013-present)
See also: ex-Hay Perro


Technical info
(IMG:https://metalarea.org/images/spectrogram/2019_Apr/c372f99da3a58a6430fb6e7fadf0693c.png)
Input File: 02 - Ride Steel.mp3
Channels : 2
Sample Rate : 44100
Precision : 16-bit
Duration : 00:04:46.53 = 12635797 samples = 21489.5 CDDA sectors
File Size : 11.6M
Bit Rate : 323k
Sample Encoding: MPEG audio (layer I, II or III)
Comments :
Title=Ride Steel
Artist=Bible of the Devil
Album=Feel It
Tracknumber=2
Year=2019



Register


Go to the top of the page
  Insert nick Quick quote
+Quote Post
 
Start new topic
Replies (1 - 4)
post Apr 13 2019, 20:33:43
Post #2

Правь статус, ####!111
**************
Group: Металариец
Posts: 16,663
Releases: 11311
From: Г.Харьков
On Forums: 6 years 11 months
Thanks: 188618 time(s)
Unknown


Cloud Mail 320
Register


Go to the top of the page
  Insert nick Quick quote
+Quote Post
post Apr 14 2019, 01:07:51
Post #3

Победитель судьбы
**************
Group: Металариец
Posts: 5,466
Releases: 0
From: Страны Мамонтов
On Forums: 12 years 1 month
Thanks: 1917 time(s)
Antarctica


Чересчурдoxуя претенциозное название у команды. Как бы музон не подвел... (IMG:style_emoticons/default/fear.gif)


Thanks:
Go to the top of the page
  Insert nick Quick quote
+Quote Post
post Apr 14 2019, 09:07:18
Post #4

MDM-Thrash Metal
**************
Group: Металариец
Posts: 7,849
Releases: 437
From: Одесса
On Forums: 11 years 8 months
Thanks: 14637 time(s)
Ukraine


Уж слишком олд скульно.
Звучок - а-ля начало 80-х.
Go to the top of the page
  Insert nick Quick quote
+Quote Post
post Apr 14 2019, 11:15:43
Post #5

hearer & reader
**************
Group: Металариец
Posts: 7,639
Releases: 101
From: Moscow
On Forums: 11 years 7 months
Thanks: 7199 time(s)
Russian Federation


Смело иду мимо этого закоса под лохматый хэви 80-х.
Если что - оригиналы под рукой.
Go to the top of the page
  Insert nick Quick quote
+Quote Post

Reply to this topicStart new topic
1 User(s) are reading this topic (1 Guests and 0 Anonymous Users)
0 Members:

 



- Lo-Fi Version Support form
Copyrights and abuse reports form
Time is now: 20th April 2019 - 13:14:06