Welcome Guest ( Log In | Register )

> Suffering Dusks - While We Cross The Sunset (2019), Gothic/Doom Metal
post Apr 13 2019, 19:49:14
Post #1

Правь статус, ####!111
**************
Group: Металариец
Posts: 17,398
Releases: 11803
From: Г.Харьков
On Forums: 7 years 1 month
Thanks: 197484 time(s)
Unknown


(IMG:https://metalarea.org/images/audiocovers/2019_Apr/acov_tid320506_thumb.jpg)

*Artist: Suffering Dusks
*Album: While We Cross The Sunset
*Year: 2019
*Genre: Gothic/Doom Metal
*Country: Chile (IMG:https://metalarea.org/forum/style_images/flags/Chile.png)
*Format: mp3@CBR320kbps
*Size: 122MB

Tracklist:
1. Intro: Like the Beggining, It's the End 01:31
2. Wandering Souls 09:28
3. The King of Sinners 06:29
4. The Fall of a Dying Sun 12:37
5. Forgotten 10:26
6. A Thousand Roads 06:36
7. Doom Paradise 11:11
******************************
Total playing time: 58:18




Extended info
Jean Pierre Guerra Guitars
Matias Aguirre Keyboards
Mauricio Figueroa Vocals
Bernardo Maldonado Bass
Cristián Gutierrez Drums


Technical info
(IMG:https://metalarea.org/images/spectrogram/2019_Apr/a43214a1e394ab72dc7fe7ad12a11f8e.png)
Input File: 03. The King of Sinners.mp3
Channels : 2
Sample Rate : 44100
Precision : 16-bit
Duration : 00:06:29.90 = 17194678 samples = 29242.6 CDDA sectors
File Size : 15.7M
Bit Rate : 322k
Sample Encoding: MPEG audio (layer I, II or III)
Comments :
Title=The King of Sinners
Artist=Suffering Dusks
Album=While We Cross the Sunset
Tracknumber=3
Year=2019
Discnumber=1



Register


Go to the top of the page
  Insert nick Quick quote
+Quote Post
 
Start new topic
Replies (1 - 3)
post Apr 14 2019, 09:49:45
Post #2

Правь статус, ####!111
**************
Group: Металариец
Posts: 17,398
Releases: 11803
From: Г.Харьков
On Forums: 7 years 1 month
Thanks: 197484 time(s)
Unknown


Cloud Mail 320
Register


Go to the top of the page
  Insert nick Quick quote
+Quote Post
post Apr 14 2019, 10:24:53
Post #3

Маньяк
**********
Group: Металариец
Posts: 1,215
Releases: 0
From: Russian Federation - St.Petersburg
On Forums: 10 years 3 months
Thanks: 278 time(s)
Russian Federation


Неплохая вещь! Типа ранних Парадайсов ... (IMG:style_emoticons/default/smile4.gif)
Go to the top of the page
  Insert nick Quick quote
+Quote Post
post Apr 14 2019, 12:36:34
Post #4

Ледоруб
**************
Group: Металариец
Posts: 22,320
Releases: 0
From: Санкт-Петербург
On Forums: 9 years 9 months
Thanks: 7276 time(s)
Russian Federation


И никто не пошутил про "Страдающих Уток"? Хорошо, я буду первым петросяном.
Go to the top of the page
  Insert nick Quick quote
+Quote Post

Reply to this topicStart new topic
1 User(s) are reading this topic (1 Guests and 0 Anonymous Users)
0 Members:

 



- Lo-Fi Version Support form
Copyrights and abuse reports form
Time is now: 19th June 2019 - 04:17:12