Welcome Guest ( Log In | Register )

> Releases Upload / Добавление релизов

Добавить релиз тут / Click here to add release
Рекомендованные обменники / Recommended file shares

 
Reply to this topicStart new topic
> Misfire - Misfire [ep] (2019), Thrash Metal
post Apr 13 2019, 20:18:13
Post #1

Правь статус, ####!111
**************
Group: Металариец
Posts: 16,663
Releases: 11312
From: Г.Харьков
On Forums: 6 years 11 months
Thanks: 188618 time(s)
Unknown


(IMG:https://metalarea.org/images/audiocovers/2019_Apr/acov_tid320507_thumb.jpg)

*Artist: Misfire
*Album: Misfire [ep]
*Year: 2019
*Genre: Thrash Metal
*Country: United States (IMG:https://metalarea.org/forum/style_images/flags/United%20States.png)
*Format: mp3@CBR320kbps
*Size: 45MB

Tracklist:
1. Sympathy for the Ignorant 04:35
2. Red Flag 03:24
3. Death Trap 04:03
4. Lying Game 03:33
5. L.Y.S. (Lose Your Shit) 03:47
******************************
Total playing time: 19:22




Extended info
Sean Coogan Bass, Vocals
Jim Nicademus Drums
Jay Johnson Guitars (lead)
Tommy Denniger Guitars (rhythm), Vocals


Technical info
(IMG:https://metalarea.org/images/spectrogram/2019_Apr/2011cccfbf2da9f8649a191496f63127.png)
Input File: 03 - Death Trap.mp3
Channels : 2
Sample Rate : 44100
Precision : 16-bit
Duration : 00:04:03.87 = 10754491 samples = 18290 CDDA sectors
File Size : 9.87M
Bit Rate : 324k
Sample Encoding: MPEG audio (layer I, II or III)
Comments :
Title=Death Trap
Artist=Misfire
Album=Misfire
Tracknumber=3
Year=2019
Genre=Metal
Discnumber=1



Register


Go to the top of the page
  Insert nick Quick quote
+Quote Post

Reply to this topicStart new topic
1 User(s) are reading this topic (1 Guests and 0 Anonymous Users)
0 Members:

 



- Lo-Fi Version Support form
Copyrights and abuse reports form
Time is now: 20th April 2019 - 13:14:28