Welcome Guest ( Log In | Register )

> Releases Upload / Добавление релизов

Добавить релиз тут / Click here to add release
Рекомендованные обменники / Recommended file shares

> Tyranitar - Tales Of A Brutal World (2019), Melodic Death Metal
post Apr 13 2019, 20:32:29
Post #1

Правь статус, ####!111
**************
Group: Металариец
Posts: 16,663
Releases: 11312
From: Г.Харьков
On Forums: 6 years 11 months
Thanks: 188618 time(s)
Unknown


(IMG:https://metalarea.org/images/audiocovers/2019_Apr/acov_tid320509_thumb.jpg)

*Artist: Tyranitar
*Album: Tales Of A Brutal World
*Year: 2019
*Genre: Melodic Death Metal
*Country: United States (IMG:https://metalarea.org/forum/style_images/flags/United%20States.png)
*Format: mp3@CBR320kbps
*Size: 70MB

Tracklist:
1. Upon Ymir's Body 06:21
2. Last Stand of the Væringjar 05:08
3. Maiden of Orleans 02:18
4. Impaler 05:07
5. Tears to the Ocean 04:59
6. Wounded 04:06
7. Mad Monk 04:51
******************************
Total playing time: 32:50




Extended info
Patches O'Brayer Bass, Vocals
See also: Shadowborn, ex-Age of Shadows
Pat Boswell Guitars, Vocals
Casey Gilbert Guitars


Technical info
(IMG:https://metalarea.org/images/spectrogram/2019_Apr/47ed969d5d0deb7e9ed23f29bf7e575b.png)
Input File: 04. Impaler.mp3
Channels : 2
Sample Rate : 44100
Precision : 16-bit
Duration : 00:05:07.09 = 13542625 samples = 23031.7 CDDA sectors
File Size : 12.4M
Bit Rate : 322k
Sample Encoding: MPEG audio (layer I, II or III)
Comments :
Title=Impaler
Artist=Tyranitar
Album=Tales of a Brutal World
Tracknumber=4
Year=2019
Discnumber=1



Register


Go to the top of the page
  Insert nick Quick quote
+Quote Post
 
Start new topic
Replies (1 - 6)
post Apr 14 2019, 03:07:52
Post #2

Два Литра
**
Group: Завсегдатай
Posts: 105
Releases: 18
From: Harlingen, Texas
On Forums: 2 years 8 months
Thanks: 484 time(s)
United States


(IMG:https://cdn.bulbagarden.net/upload/8/82/248Tyranitar.png)


Thanks:
(1) Lucifer,
Go to the top of the page
  Insert nick Quick quote
+Quote Post
post Apr 14 2019, 08:49:32
Post #3

MDM-Thrash Metal
**************
Group: Металариец
Posts: 7,849
Releases: 437
From: Одесса
On Forums: 11 years 8 months
Thanks: 14637 time(s)
Ukraine


Среднетемповый, неторопливый сабж
Go to the top of the page
  Insert nick Quick quote
+Quote Post
post Apr 14 2019, 09:52:08
Post #4

Правь статус, ####!111
**************
Group: Металариец
Posts: 16,663
Releases: 11312
From: Г.Харьков
On Forums: 6 years 11 months
Thanks: 188618 time(s)
Unknown


Cloud Mail 320
Register
Go to the top of the page
  Insert nick Quick quote
+Quote Post
post Apr 14 2019, 11:12:18
Post #5

hearer & reader
**************
Group: Металариец
Posts: 7,639
Releases: 101
From: Moscow
On Forums: 11 years 7 months
Thanks: 7199 time(s)
Russian Federation


ЦИТАТА(Andrew @ Apr 14 2019, 10:49:32) *
Среднетемповый, неторопливый сабж

Да, уж. И немытым викингом воняет.
Go to the top of the page
  Insert nick Quick quote
+Quote Post
post Apr 14 2019, 16:02:45
Post #6

brutalcesar
**************
Group: Металариец
Posts: 17,721
Releases: 67
From: Рязань
On Forums: 10 years 3 months
Thanks: 9037 time(s)
Russian Federation


Почти не интересно.
Go to the top of the page
  Insert nick Quick quote
+Quote Post
post Today, 06:16:30
Post #7

Ъ
**************
Group: Металариец
Posts: 9,484
Releases: 9
On Forums: 10 years 3 months
Thanks: 1828 time(s)
Sweden


Третьесорт.
Go to the top of the page
  Insert nick Quick quote
+Quote Post

Reply to this topicStart new topic
1 User(s) are reading this topic (1 Guests and 0 Anonymous Users)
0 Members:

 



- Lo-Fi Version Support form
Copyrights and abuse reports form
Time is now: 20th April 2019 - 13:18:56