Welcome Guest ( Log In | Register )

 
Reply to this topicStart new topic
> Big Business - Tour I [ep] (2004), Sludge/Stoner/Experimental (D)
post Apr 14 2019, 06:26:23
Post #1

Маньяк
**********
Group: Металариец
Posts: 1,148
Releases: 78
On Forums: 5 years 8 months
Thanks: 2066 time(s)
Unknown


(IMG:http://metalarea.org/images/audiocovers/2019_Apr/acov_tid320511_thumb.jpg)

*Artist: Big Business
*Album: Tour I [ep]
*Year: 2004
*Genre: Sludge/Stoner/Experimental
*Country: United States (IMG:http://metalarea.org/forum/style_images/flags/United%20States.png)
*Format: mp3@CBR320kbps
*Size: 37MB

Tracklist:
01. O.G. 04:21
02. Eis Hexe 04:01
03. Evil Medievil 03:50
04. Off Off Broadway 04:36
******************************
Total playing time: 16:48

Technical info
(IMG:http://metalarea.org/images/spectrogram/2019_Apr/b219f10a0f14f70a012620aab3ecc602.png)
Input File: 01. O.G.mp3
Channels : 2
Sample Rate : 44100
Precision : 16-bit
Duration : 00:04:21.70 = 11541058 samples = 19627.6 CDDA sectors
File Size : 10.5M
Bit Rate : 320k
Sample Encoding: MPEG audio (layer I, II or III)
Comments :
Title=O.G.
Artist=Big Business
Album=Tour I [EP]
Tracknumber=01
Year=2004
Genre=Stoner Rock



Register


Go to the top of the page
  Insert nick Quick quote
+Quote Post

Reply to this topicStart new topic
1 User(s) are reading this topic (1 Guests and 0 Anonymous Users)
0 Members:

 



- Lo-Fi Version Support form
Copyrights and abuse reports form
Time is now: 19th June 2019 - 03:40:01