Welcome Guest ( Log In | Register )

> One Bullet Left - Armageddon Sunrise (2019), Modern Melodic Death Metal
post Apr 14 2019, 07:03:28
Post #1

Serial Uploader
Group Icon
Group: V.I.P
Posts: 35,420
Releases: 33632
From: Lithuania
On Forums: 11 years 1 week
Thanks: 386110 time(s)
Lithuania


(IMG:https://metalarea.org/images/audiocovers/2019_Apr/acov_tid320512_thumb.jpg)

*Artist: One Bullet Left
*Album: Armageddon Sunrise
*Year: 2019
*Genre: Modern Melodic Death Metal
*Country: United States (IMG:https://metalarea.org/forum/style_images/flags/United%20States.png)
*Format: mp3@CBR320kbps
*Size: 127MB

Tracklist:
01. Invisible Fleshwounds
02. Whatever May Come
03. Alpha Dogs
04. This Prayer
05. Into The Dark
06. Black Widow
07. Feast For The Carnivore
08. Love Boat Morgue
09. Chapter III Mortal Divinity
10. Not Our World
11. Reach For The Stars
12. Armageddon Sunrise
******************************
Total playing time: 52:25



Technical info
(IMG:https://metalarea.org/images/spectrogram/2019_Apr/c4765bf59a4a183b0ff00f5aceb5d8e7.png)
Input File: 02. Whatever May Come.mp3
Channels : 2
Sample Rate : 44100
Precision : 16-bit
Duration : 00:05:05.08 = 13453940 samples = 22880.9 CDDA sectors
File Size : 12.8M
Bit Rate : 335k
Sample Encoding: MPEG audio (layer I, II or III)
Comments :
Title=Whatever May Come
Artist=One Bullet Left
Album=Armageddon Sunrise
Tracknumber=2/12
Year=2019



Register


Go to the top of the page
  Insert nick Quick quote
+Quote Post
 
Start new topic
Replies (1 - 3)
post Apr 14 2019, 08:41:14
Post #2

MDM-Thrash Metal
**************
Group: Металариец
Posts: 8,182
Releases: 458
From: Одесса
On Forums: 11 years 10 months
Thanks: 15276 time(s)
Ukraine


фу............ (IMG:style_emoticons/default/22.gif)
Go to the top of the page
  Insert nick Quick quote
+Quote Post
post Apr 14 2019, 08:52:10
Post #3

Тридцать лет на борту "Тяжёлого" крейсера
**************
Group: Металариец
Posts: 2,062
Releases: 0
From: Питер
On Forums: 12 years 6 days
Thanks: 514 time(s)
Russian Federation


присоединяюсь ))
и включаю Accept - Metal Heart (IMG:style_emoticons/default/banana.gif) (IMG:style_emoticons/default/banana.gif) (IMG:style_emoticons/default/banana.gif)
Go to the top of the page
  Insert nick Quick quote
+Quote Post
post Apr 23 2019, 15:52:37
Post #4

Ъ
**************
Group: Металариец
Posts: 9,573
Releases: 9
On Forums: 10 years 5 months
Thanks: 1853 time(s)
Sweden


Третьесорт.
Go to the top of the page
  Insert nick Quick quote
+Quote Post

Reply to this topicStart new topic
1 User(s) are reading this topic (1 Guests and 0 Anonymous Users)
0 Members:

 



- Lo-Fi Version Support form
Copyrights and abuse reports form
Time is now: 19th June 2019 - 04:14:35