Welcome Guest ( Log In | Register )

> Warage - Die Organisation Des Todes (2018), Black Metal
post Apr 14 2019, 08:58:59
Post #1

the faceless one
Group Icon
Group: S-moderation team
Posts: 9,045
Releases: 1794
On Forums: 10 years 10 months
Thanks: 106205 time(s)
Russian Federation


(IMG:http://metalarea.org/images/audiocovers/2019_Apr/acov_tid320516_thumb.jpg)

*Artist: Warage
*Album: Die Organisation Des Todes
*Year: 2018
*Genre: Black Metal
*Country: France (IMG:http://metalarea.org/forum/style_images/flags/France.png)
*Format: mp3@CBR192kbps
*Size: 47MB

Tracklist:
1. Intro/Die Organisation Des Todes 03:46
2. Racines Profondes 04:23
3. Internationale Escroquerie 03:49
4. Racaille 05:36
5. Royaume Égaré 05:02
6. Cromlechs 04:42
7. L'hiver Sera Mon Tombeau 05:16
******************************
Total playing time: 32:34

Extended info
Sabbath's Fire Records,
July 24th, 2018.

Limited to 300 copies


Technical info
(IMG:http://metalarea.org/images/spectrogram/2019_Apr/35c60dd983754884bf711b0b6975e5ee.png)
Input File: 03 Internationale Escroquerie.mp3
Channels : 2
Sample Rate : 44100
Precision : 16-bit
Duration : 00:03:48.67 = 10084259 samples = 17150.1 CDDA sectors
File Size : 5.49M
Bit Rate : 192k
Sample Encoding: MPEG audio (layer I, II or III)
Comments :
Title=Internationale Escroquerie
Artist=Warage
Album=Die Organisation Des Todes
Tracknumber=3
Year=2018
Genre=Black Metal



Register


Go to the top of the page
  Insert nick Quick quote
+Quote Post
 
Start new topic
Replies (1 - 4)
post Apr 14 2019, 09:07:43
Post #2

Восемь Литров
********
Group: Металариец
Posts: 827
Releases: 0
From: Новосибирск
On Forums: 9 years 9 months
Thanks: 223 time(s)
Russian Federation


Как раз то, что надо.
Go to the top of the page
  Insert nick Quick quote
+Quote Post
post Apr 14 2019, 10:07:58
Post #3

While Waiting the Worms
********
Group: Металариец
Posts: 809
Releases: 0
On Forums: 5 years 5 months
Thanks: 1093 time(s)
Unknown


Простой и эффективный, как коктейль Молотова.
Хулиганистый и бескомпромиссный стафф во славу (2)18!


Thanks:
Go to the top of the page
  Insert nick Quick quote
+Quote Post
post Apr 14 2019, 14:33:12
Post #4

De Mysteriis Dom Sathanas
**************
Group: Металариец
Posts: 3,540
Releases: 63
From: Москва
On Forums: 10 years 11 months
Thanks: 3005 time(s)
Russian Federation


Пока не понял, нравится стафф или нет, надо расслушать.
Go to the top of the page
  Insert nick Quick quote
+Quote Post
post Apr 15 2019, 20:33:45
Post #5
BAN
Banned till
Jul 5 2019, 00:25:55



ЦИТАТА(Sangreal @ 14th April 2019 - 14:07:58) *
Простой и эффективный, как коктейль Молотова.

при прослушивании ощутил себя бастующим французским студентом.
заeб.ок
Go to the top of the page
  Insert nick Quick quote
+Quote Post

Reply to this topicStart new topic
1 User(s) are reading this topic (1 Guests and 0 Anonymous Users)
0 Members:

 



- Lo-Fi Version Support form
Copyrights and abuse reports form
Time is now: 19th June 2019 - 04:33:34