Welcome Guest ( Log In | Register )

> Releases Upload / Добавление релизов

Добавить релиз тут / Click here to add release
Рекомендованные обменники / Recommended file shares

 
Reply to this topicStart new topic
> Dark As Death - Bless The Witch [ep] (2014), Death Metal
post Apr 14 2019, 10:07:43
Post #1

Join my religion, or die
**************
Group: Металариец
Posts: 10,150
Releases: 1355
From: Питера
On Forums: 9 years 6 months
Thanks: 17456 time(s)
Russian Federation


(IMG:https://metalarea.org/images/audiocovers/2019_Apr/acov_tid320517_thumb.jpg)

*Artist: Dark As Death
*Album: Bless The Witch [ep]
*Year: 2014
*Genre: Death Metal
*Country: United States (IMG:https://metalarea.org/forum/style_images/flags/United%20States.png)
*Format: mp3@CBR320kbps
*Size: 18MB

Tracklist:
01. Dead and Buried 05:10
02. Demonic 02:26
******************************
Total playing time: 7:36

Extended info
Первый релиз банды, играющей с 1989 года



Technical info
(IMG:https://metalarea.org/images/spectrogram/2019_Apr/e9547002dd1b432cf05299019387c514.png)
Input File: 01 Dead and Buried.mp3
Channels : 2
Sample Rate : 44100
Precision : 16-bit
Duration : 00:05:10.72 = 13702752 samples = 23304 CDDA sectors
File Size : 12.6M
Bit Rate : 323k
Sample Encoding: MPEG audio (layer I, II or III)
Comments :
Title=Dead and Buried
Artist=Dark as Death
Album=2014 Bless the Witch
Tracknumber=01/02
Year=2014
Genre=Death Metal



Register


Go to the top of the page
  Insert nick Quick quote
+Quote Post

Reply to this topicStart new topic
1 User(s) are reading this topic (1 Guests and 0 Anonymous Users)
0 Members:

 



- Lo-Fi Version Support form
Copyrights and abuse reports form
Time is now: 20th April 2019 - 13:23:52