Welcome Guest ( Log In | Register )

 
Reply to this topicStart new topic
> Anaphylaxie - Schwarzer Tod [demo] (2018), Black Metal
post Apr 14 2019, 11:31:53
Post #1

Правь статус, ####!616
**************
Group: Металариец
Posts: 4,605
Releases: 3192
From: 55°35’N 38°08’E
On Forums: 10 years 11 months
Thanks: 60174 time(s)
Unknown


(IMG:http://metalarea.org/images/audiocovers/2019_Apr/acov_tid320519_thumb.jpg)

*Artist: Anaphylaxie
*Album: Schwarzer Tod [demo]
*Year: 2018
*Genre: Black Metal
*Country: Germany (IMG:http://metalarea.org/forum/style_images/flags/Germany.png)
*Format: mp3@CBR320kbps
*Size: 35MB

Tracklist:
1.Pestplage 04:27
2.Der Pestarzt 03:36
3.Pestmahl 06:22
******************************
Total playing time: 14:25


(IMG:http://metalarea.org/images/youtube.png)


Technical info
(IMG:http://metalarea.org/images/spectrogram/2019_Apr/f666f4957401205981cd4df2c4c59ebf.png)
Input File: 01 Pestplage.mp3
Channels : 2
Sample Rate : 44100
Precision : 16-bit
Duration : 00:04:27.43 = 11793795 samples = 20057.5 CDDA sectors
File Size : 10.9M
Bit Rate : 326k
Sample Encoding: MPEG audio (layer I, II or III)
Comments :
Title=Pestplage
Artist=Anaphylaxie
Album=Schwarzer Tod
Tracknumber=1
Year=2018
Genre=Black Metal



Register


Go to the top of the page
  Insert nick Quick quote
+Quote Post

Reply to this topicStart new topic
1 User(s) are reading this topic (1 Guests and 0 Anonymous Users)
0 Members:

 



- Lo-Fi Version Support form
Copyrights and abuse reports form
Time is now: 19th June 2019 - 04:03:20