Welcome Guest ( Log In | Register )

> Releases Upload / Добавление релизов

Добавить релиз тут / Click here to add release
Рекомендованные обменники / Recommended file shares

> Werifesteria - Castigation (2019), Black Metal
post Apr 14 2019, 12:58:23
Post #1

Правь статус, ####!111
**************
Group: Металариец
Posts: 16,663
Releases: 11312
From: Г.Харьков
On Forums: 6 years 11 months
Thanks: 188618 time(s)
Unknown


(IMG:https://metalarea.org/images/audiocovers/2019_Apr/acov_tid320521_thumb.jpg)

*Artist: Werifesteria
*Album: Castigation
*Year: 2019
*Genre: Black Metal
*Country: United States (IMG:https://metalarea.org/forum/style_images/flags/United%20States.png)
*Format: mp3@CBR320kbps
*Size: 71MB

Tracklist:
1. Into the Valley 02:05
2. Through the Gates 02:11
3. Descent 05:05
4. Take Me Under Your Black Wings 03:56
5. Loss 01:12
6. Castigation 04:21
7. As Blood Boils 04:10
8. Chasing Shadows 05:19
9. Chastened 02:22
******************************
Total playing time: 30:41




Extended info
Sluagh - Guitar, Accenting Vocals
Drude - Vocals
Raythean - Guitar, Keyboard
De Ogen - Bass Guitar, Accenting Vocals
Geist - Drums


Technical info
(IMG:https://metalarea.org/images/spectrogram/2019_Apr/8f1c1bf2d0c84488204a01c41209354e.png)
Input File: 03 - Descent.mp3
Channels : 2
Sample Rate : 44100
Precision : 16-bit
Duration : 00:05:05.88 = 13489484 samples = 22941.3 CDDA sectors
File Size : 12.3M
Bit Rate : 322k
Sample Encoding: MPEG audio (layer I, II or III)
Comments :
Title=Descent
Artist=Werifesteria
Album=Castigation
Tracknumber=3
Year=2019



Register


Go to the top of the page
  Insert nick Quick quote
+Quote Post
 
Start new topic
Replies (1 - 1)
post Apr 15 2019, 11:15:36
Post #2

Правь статус, ####!111
**************
Group: Металариец
Posts: 16,663
Releases: 11312
From: Г.Харьков
On Forums: 6 years 11 months
Thanks: 188618 time(s)
Unknown


Cloud Mail 320
Register
Go to the top of the page
  Insert nick Quick quote
+Quote Post

Reply to this topicStart new topic
2 User(s) are reading this topic (2 Guests and 0 Anonymous Users)
0 Members:

 



- Lo-Fi Version Support form
Copyrights and abuse reports form
Time is now: 20th April 2019 - 13:17:30