Welcome Guest ( Log In | Register )

> Releases Upload / Добавление релизов

Добавить релиз тут / Click here to add release
Рекомендованные обменники / Recommended file shares

> Eroica - Blind Observer (2019), Heavy Metal (D4)
post Apr 14 2019, 13:15:50
Post #1

Правь статус, ####!111
**************
Group: Металариец
Posts: 16,664
Releases: 11312
From: Г.Харьков
On Forums: 6 years 11 months
Thanks: 188630 time(s)
Unknown


(IMG:https://metalarea.org/images/audiocovers/2019_Apr/acov_tid320522_thumb.jpg)

*Artist: Eroica
*Album: Blind Observer
*Year: 2019
*Genre: Heavy Metal
*Country: Switzerland (IMG:https://metalarea.org/forum/style_images/flags/Switzerland.png)
*Format: mp3@CBR320kbps
*Size: 101MB

Tracklist:
1. Blind Observer
2. Welcome To The Village Of Oblivion
3. Moonchime
4. Tell Me Why
5. Experiment II (Instrumental Version)
6. Its Not Me
7. 1984
8. White Colored Solitude
******************************
Total playing time: 43:53




Extended info
André Häusermann
Peter Werfeli
Björn Rindlisbacher
Markus Reichardt


Technical info
(IMG:https://metalarea.org/images/spectrogram/2019_Apr/060b83759e2a74eb416884c4586a8663.png)
Input File: 02 - Welcome to the Village of Oblivion.mp3
Channels : 2
Sample Rate : 44100
Precision : 16-bit
Duration : 00:05:26.18 = 14384626 samples = 24463.6 CDDA sectors
File Size : 13.2M
Bit Rate : 324k
Sample Encoding: MPEG audio (layer I, II or III)
Comments :
Title=Welcome to the Village of Oblivion
Artist=Eroica
Album=Blind Observer
Tracknumber=2
Year=2019



Register


Go to the top of the page
  Insert nick Quick quote
+Quote Post
 
Start new topic
Replies (1 - 1)
post Apr 15 2019, 11:14:40
Post #2

Правь статус, ####!111
**************
Group: Металариец
Posts: 16,664
Releases: 11312
From: Г.Харьков
On Forums: 6 years 11 months
Thanks: 188630 time(s)
Unknown


Cloud Mail 320
Register
Go to the top of the page
  Insert nick Quick quote
+Quote Post

Reply to this topicStart new topic
2 User(s) are reading this topic (2 Guests and 0 Anonymous Users)
0 Members:

 



- Lo-Fi Version Support form
Copyrights and abuse reports form
Time is now: 20th April 2019 - 13:54:38