Welcome Guest ( Log In | Register )

> Releases Upload / Добавление релизов

Добавить релиз тут / Click here to add release
Рекомендованные обменники / Recommended file shares

 
Reply to this topicStart new topic
> Onixia - Instrumento Del Mal (2018), Heavy Metal
post Apr 14 2019, 13:39:37
Post #1

Правь статус, ####!111
**************
Group: Металариец
Posts: 16,664
Releases: 11312
From: Г.Харьков
On Forums: 6 years 11 months
Thanks: 188618 time(s)
Unknown


(IMG:https://metalarea.org/images/audiocovers/2019_Apr/acov_tid320523_thumb.jpg)

*Artist: Onixia
*Album: Instrumento Del Mal
*Year: 2018
*Genre: Heavy Metal
*Country: Argentina (IMG:https://metalarea.org/forum/style_images/flags/Argentina.png)
*Format: mp3@CBR320kbps
*Size: 100MB

Tracklist:
1. Cosa 'e mandinga 04:27
2. Fuego interno 03:15
3. No 04:04
4. Instrumento del mal 03:37
5. Tu estupidez 04:48
6. El segundo círculo 06:34
7. Tu vieja 02:26
8. El mundo a tus pies 03:24
9. Volver en mi 02:59
10. Recuerdos de un final 03:16
11. Balderrama (Gustavo Cuchi Leguizamón cover) 04:14
******************************
Total playing time: 43:04



Extended info
Sasha Kido Vocals
Lucia Eguiazu Guitars
Silvina Gorgas Guitars
Analía Fernandez Bass
Milagros Guillaumet Drums


Technical info
(IMG:https://metalarea.org/images/spectrogram/2019_Apr/85f33f8db64ebb469bee7a305e33c15a.png)
Input File: 04 - Instrumento del Mal.mp3
Channels : 2
Sample Rate : 44100
Precision : 16-bit
Duration : 00:03:37.46 = 9589766 samples = 16309.1 CDDA sectors
File Size : 8.93M
Bit Rate : 328k
Sample Encoding: MPEG audio (layer I, II or III)
Comments :
Title=Instrumento del Mal
Artist=Onixia
Album=Instrumento del Mal
Tracknumber=4
Year=2018



Register


Thanks:
Go to the top of the page
  Insert nick Quick quote
+Quote Post

Reply to this topicStart new topic
1 User(s) are reading this topic (1 Guests and 0 Anonymous Users)
0 Members:

 



- Lo-Fi Version Support form
Copyrights and abuse reports form
Time is now: 20th April 2019 - 13:22:04