Welcome Guest ( Log In | Register )

> Releases Upload / Добавление релизов

Добавить релиз тут / Click here to add release
Рекомендованные обменники / Recommended file shares

 
Reply to this topicStart new topic
> Obsession - Century Of Decadence (2017), Thrash Metal (D7)
post Apr 14 2019, 14:06:25
Post #1

Правь статус, ####!111
**************
Group: Металариец
Posts: 16,664
Releases: 11312
From: Г.Харьков
On Forums: 6 years 11 months
Thanks: 188620 time(s)
Unknown


(IMG:https://metalarea.org/images/audiocovers/2019_Apr/acov_tid320525_thumb.jpg)

*Artist: Obsession
*Album: Century Of Decadence
*Year: 2017
*Genre: Thrash Metal
*Country: France (IMG:https://metalarea.org/forum/style_images/flags/France.png)
*Format: mp3@CBR320kbps
*Size: 97MB

Tracklist:
1. Stoned World 05:53
2. Century of Decadence 04:54
3. Social Disorder 03:58
4. Chaos Division 06:03
5. Absolute War 04:30
6. Order of the Temple 06:16
7. Red Prince 05:57
8. Homeless Children 04:05
******************************
Total playing time: 41:36




Extended info
Boomer Bass
Cachou Drums
Alexis Guitars
Steph Guitars
Antoine Vocals


Technical info
(IMG:https://metalarea.org/images/spectrogram/2019_Apr/7d4e79308cf672ab47dca44afbb0c737.png)
Input File: 04 - Chaos Division.mp3
Channels : 2
Sample Rate : 44100
Precision : 16-bit
Duration : 00:06:03.49 = 16029777 samples = 27261.5 CDDA sectors
File Size : 14.7M
Bit Rate : 324k
Sample Encoding: MPEG audio (layer I, II or III)
Comments :
Title=Chaos Division
Artist=Obsession
Album=Century of Decadence
Tracknumber=4
Year=2017
Genre=Metal
Discnumber=1



Register


Go to the top of the page
  Insert nick Quick quote
+Quote Post

Reply to this topicStart new topic
1 User(s) are reading this topic (1 Guests and 0 Anonymous Users)
0 Members:

 



- Lo-Fi Version Support form
Copyrights and abuse reports form
Time is now: 20th April 2019 - 13:28:54