Welcome Guest ( Log In | Register )

> Releases Upload / Добавление релизов

Добавить релиз тут / Click here to add release
Рекомендованные обменники / Recommended file shares

 
Reply to this topicStart new topic
> Critic - Eveil De L'esprit [ep] (2019), Technical Death Metal/Grindcore
post Apr 14 2019, 14:26:10
Post #1

Правь статус, ####!111
**************
Group: Металариец
Posts: 16,664
Releases: 11312
From: Г.Харьков
On Forums: 6 years 11 months
Thanks: 188630 time(s)
Unknown


(IMG:https://metalarea.org/images/audiocovers/2019_Apr/acov_tid320526_thumb.jpg)

*Artist: Critic
*Album: Eveil De L'esprit [ep]
*Year: 2019
*Genre: Technical Death Metal/Grindcore
*Country: France (IMG:https://metalarea.org/forum/style_images/flags/France.png)
*Format: mp3@CBR320kbps
*Size: 45MB

Tracklist:
1. Eveil 00:30
2. Iconoclastes 03:12
3. Marchands d'âmes 02:03
4. Nanti 04:01
5. Doctrine consanguine 04:06
6. Crises 02:55
7. Par la grâce du feu 02:42
******************************
Total playing time: 19:29




Extended info
Erwin Bass
Vincent Macquet Drums
Jean Gui Guitars
Maxime Laffile Vocals
Philippe Lavier Vocals, Guitars


Technical info
(IMG:https://metalarea.org/images/spectrogram/2019_Apr/ecb7138d95df3fef651de17bf9f8ef80.png)
Input File: 04 - Nanti.mp3
Channels : 2
Sample Rate : 44100
Precision : 16-bit
Duration : 00:04:01.91 = 10668231 samples = 18143.2 CDDA sectors
File Size : 9.68M
Bit Rate : 320k
Sample Encoding: MPEG audio (layer I, II or III)
Comments :
Title=Nanti
Artist=Critic
Album=Eveil De L'Esprit
Tracknumber=04/07
Year=2019
Genre=Technical Death Metal



Register


Go to the top of the page
  Insert nick Quick quote
+Quote Post

Reply to this topicStart new topic
1 User(s) are reading this topic (1 Guests and 0 Anonymous Users)
0 Members:

 



- Lo-Fi Version Support form
Copyrights and abuse reports form
Time is now: 20th April 2019 - 14:07:16