Welcome Guest ( Log In | Register )

> Releases Upload / Добавление релизов

Добавить релиз тут / Click here to add release
Рекомендованные обменники / Recommended file shares

 
Reply to this topicStart new topic
> Oz - The Show Must Go On [single] (2012), Heavy Metal (D)
post Apr 14 2019, 15:47:09
Post #1

Правь статус, ####!616
**************
Group: Металариец
Posts: 4,559
Releases: 3147
From: 55°35’N 38°08’E
On Forums: 10 years 9 months
Thanks: 59385 time(s)
Unknown


(IMG:http://metalarea.org/images/audiocovers/2019_Apr/acov_tid320528_thumb.jpg)

*Artist: Oz
*Album: The Show Must Go On [single]
*Year: 2012
*Genre: Heavy Metal
*Country: Finland (IMG:http://metalarea.org/forum/style_images/flags/Finland.png)
*Format: mp3@CBR320kbps
*Size: 31MB

Tracklist:
1.The Show Must Go On 05:04
2.Signs From the Dead 04:57
******************************
Total playing time: 10:01

Extended info
7" vinyl, Metalizer Records


Technical info
(IMG:http://metalarea.org/images/spectrogram/2019_Apr/94fbd741dced056e0fc0bc09b1a37a4b.png)
Input File: 01 The Show Must Go On.mp3
Channels : 2
Sample Rate : 44100
Precision : 16-bit
Duration : 00:05:03.71 = 13393479 samples = 22778 CDDA sectors
File Size : 12.2M
Bit Rate : 322k
Sample Encoding: MPEG audio (layer I, II or III)
Comments :
Title=The Show Must Go On
Artist=Oz
Album=The Show Must Go On
Tracknumber=1
Year=2012
Genre=Heavy Metal



Register


Go to the top of the page
  Insert nick Quick quote
+Quote Post

Reply to this topicStart new topic
1 User(s) are reading this topic (1 Guests and 0 Anonymous Users)
0 Members:

 



- Lo-Fi Version Support form
Copyrights and abuse reports form
Time is now: 20th April 2019 - 13:14:11