Welcome Guest ( Log In | Register )

 
Reply to this topicStart new topic
> Fuck Division - Fuck Division (2019), Death/Thrash Metal
post Apr 14 2019, 16:01:31
Post #1

Правь статус, ####!111
**************
Group: Металариец
Posts: 17,398
Releases: 11803
From: Г.Харьков
On Forums: 7 years 1 month
Thanks: 197484 time(s)
Unknown


(IMG:https://metalarea.org/images/audiocovers/2019_Apr/acov_tid320529_thumb.jpg)

*Artist: Fuck Division
*Album: Fuck Division
*Year: 2019
*Genre: Death/Thrash Metal
*Country: Spain (IMG:https://metalarea.org/forum/style_images/flags/Spain.png)
*Format: mp3@CBR320kbps
*Size: 60MB

Tracklist:
01. Fucker Terror 01:11
02. Desde Dentro 03:09
03. Por Una Firma 03:25
04. Asalto 03:37
05. La Visita 03:06
06. Sin Alma 03:55
07. Por Ti o por Mi 03:08
08. Restos 04:42
******************************
Total playing time: 26:13



Extended info
Korpa- voz
Jacin-guitarra
Rober--guitarra
Kappo - batería
M. Ivan- bajo


Technical info
(IMG:https://metalarea.org/images/spectrogram/2019_Apr/d8317b782986d66282d3ec792d08a27c.png)
Input File: 03 - Por Una Firma.mp3
Channels : 2
Sample Rate : 44100
Precision : 16-bit
Duration : 00:03:25.14 = 9046762 samples = 15385.6 CDDA sectors
File Size : 8.21M
Bit Rate : 320k
Sample Encoding: MPEG audio (layer I, II or III)
Comments :
Title=Por Una Firma
Artist=Fuck Division
Album=Fuck Division
Tracknumber=3
Year=2019
Genre=Death Metal



Register


Go to the top of the page
  Insert nick Quick quote
+Quote Post

Reply to this topicStart new topic
1 User(s) are reading this topic (1 Guests and 0 Anonymous Users)
0 Members:

 



- Lo-Fi Version Support form
Copyrights and abuse reports form
Time is now: 19th June 2019 - 04:18:30