Welcome Guest ( Log In | Register )

> Fantasyquest - Antiquities (2018), Electronic/Power Metal
post Apr 14 2019, 16:06:18
Post #1

Мегаманьяк
***********
Group: Металариец
Posts: 1,789
Releases: 1554
From: Одесса
On Forums: 11 years 2 weeks
Thanks: 12943 time(s)
Ukraine


(IMG:http://metalarea.org/images/audiocovers/2019_Apr/acov_tid320530_thumb.jpg)

*Artist: Fantasyquest
*Album: Antiquities
*Year: 2018
*Genre: Electronic/Power Metal
*Country: Canada (IMG:http://metalarea.org/forum/style_images/flags/Canada.png)
*Format: mp3@CBR320kbps
*Size: 51MB

Tracklist:
1. Mechanix (Megadeth cover) 02:58
2. Rasputin (Boney M. cover) 04:08
3. Dr. Stein (Helloween cover) 03:42
4. Ghost Riders in the Sky (Stan Jones cover 02:37
5. Son of a Bitch 02:44
6. Whistling Past the Graveyard (Tom Waits cover) 01:50
7. Exodus (Bob Marley cover) 03:42
******************************
Total playing time: 21:41





Technical info
(IMG:http://metalarea.org/images/spectrogram/2019_Apr/6195aa19c533581adbe0d942c72f14e3.png)
Input File: 07. Exodus (Bob Marley).mp3
Channels : 2
Sample Rate : 44100
Precision : 16-bit
Duration : 00:03:42.08 = 9793816 samples = 16656.1 CDDA sectors
File Size : 8.96M
Bit Rate : 323k
Sample Encoding: MPEG audio (layer I, II or III)
Comments :
Title=Exodus (Bob Marley)
Artist=FantasyQuest
Album=Antiquities
Tracknumber=7
Year=2018
Genre=Electronic / Power Metal



Register


Go to the top of the page
  Insert nick Quick quote
+Quote Post
 
Start new topic
Replies (1 - 1)
post Apr 21 2019, 12:44:02
Post #2

Ъ
**************
Group: Металариец
Posts: 9,573
Releases: 9
On Forums: 10 years 5 months
Thanks: 1853 time(s)
Sweden


Стиль интересный и материал для каверов, а на деле какое то ублюдство слепленное на коленке.
Go to the top of the page
  Insert nick Quick quote
+Quote Post

Reply to this topicStart new topic
1 User(s) are reading this topic (1 Guests and 0 Anonymous Users)
0 Members:

 



- Lo-Fi Version Support form
Copyrights and abuse reports form
Time is now: 19th June 2019 - 04:38:04