Welcome Guest ( Log In | Register )

> Releases Upload / Добавление релизов

Добавить релиз тут / Click here to add release
Рекомендованные обменники / Recommended file shares

 
Reply to this topicStart new topic
> Fate Gear - Headless Goddess [ep] (2019), Heavy/Power Metal
post Apr 14 2019, 16:19:58
Post #1

Мегаманьяк
***********
Group: Металариец
Posts: 1,692
Releases: 1464
From: Одесса
On Forums: 10 years 10 months
Thanks: 11942 time(s)
Ukraine


(IMG:http://metalarea.org/images/audiocovers/2019_Apr/acov_tid320531_thumb.jpg)

*Artist: Fate Gear
*Album: Headless Goddess [ep]
*Year: 2019
*Genre: Heavy/Power Metal
*Country: Japan (IMG:http://metalarea.org/forum/style_images/flags/Japan.png)
*Format: mp3@CBR320kbps
*Size: 65MB

Tracklist:
1. The Generation of Chaos 01:58
2. Headless Goddess 05:14
3. Skykiller 04:11
4. Lifer 03:22
5. Fade Out 05:04
6. 破壊の薔薇 06:03
7. Megabullets * 03:43
******************************
Total playing time: 29:35



Extended info
Line - up:

Mina - Guitars (Animeta Girl, ex-Destrose, ex-Arch Roses, ex-Destroya)
Nico - Vocals
Erika - Bass
Haruka - Drums
Yuri - Keyboards

(IMG:https://www.metal-archives.com/images/3/5/4/0/3540398808_photo.jpg?0428)


Technical info
(IMG:http://metalarea.org/images/spectrogram/2019_Apr/2aab4aba28a839ed49cfb5cbf6b03ffb.png)
Input File: 07 MEGABULLETS (Re-recording).mp3
Channels : 2
Sample Rate : 44100
Precision : 16-bit
Duration : 00:03:43.11 = 9839151 samples = 16733.2 CDDA sectors
File Size : 8.93M
Bit Rate : 320k
Sample Encoding: MPEG audio (layer I, II or III)
Comments :
Title=MEGABULLETS (Re-recording)
Artist=Fate Gear
Album=Headless Goddess (EP)
Tracknumber=7
Year=2019
Genre=Heavy / Power Metal



Register


Thanks:
Go to the top of the page
  Insert nick Quick quote
+Quote Post

Reply to this topicStart new topic
1 User(s) are reading this topic (1 Guests and 0 Anonymous Users)
0 Members:

 



- Lo-Fi Version Support form
Copyrights and abuse reports form
Time is now: 20th April 2019 - 13:27:04