Welcome Guest ( Log In | Register )

> Forum rules / Правила раздела

Here go releases which can't go to New releases forums due lack of information, stolen links or incorrect data and just founded in other sites links with minimum info. Reissue of this releases through Add release form with added/corrected data, info and own links highly welcomed.

Сюда уходят релизы, не пропущенные в основные релизные форумы по причинам отсутствия, недостаточности или неверности/некорректности сопровождающей информации, содержащие ссылки, указывающие на файлы, залитые не автором темы, а так же просто найденные где-то ссылки с минимумом информации. Переоформление тем отсюда через форму Добавления релиза с перезаливкой ссылок крайне приветствуется.

> Moonsorrow - Thorns Of Ice [demo] (1996), Pagan/Black Metal (D)
post Apr 14 2019, 16:51:40
Post #1

Четыре Литра
****
Group: Металариец
Posts: 326
Releases: 8
On Forums: 10 years 1 month
Thanks: 150 time(s)
United Kingdom


(IMG:http://metalarea.org/images/audiocovers/2019_Apr/acov_tid320532_thumb.jpg)

*Artist: Moonsorrow
*Album: Thorns Of Ice [demo]
*Year: 1996
*Genre: Pagan/Black Metal
*Country: Finland (IMG:http://metalarea.org/forum/style_images/flags/Finland.png)
*Format: mp3@CBR320kbps
*Size: 22MB

Tracklist:
1. Throne of Ice 03:48
2. Wolves (A Sculpture of Snow) 05:42
******************************
Total playing time: 9:30

Technical info
(IMG:http://metalarea.org/images/spectrogram/2019_Apr/b208177622030cb634f44e618eb27304.png)
Input File: O1 Thrones Of Ice.mp3
Channels : 2
Sample Rate : 44100
Precision : 16-bit
Duration : 00:03:49.58 = 10124434 samples = 17218.4 CDDA sectors
File Size : 9.19M
Bit Rate : 320k
Sample Encoding: MPEG audio (layer I, II or III)
Comments :
Title=Thrones Of Ice
Artist=Moonsorrow
Album=Thrones Of Ice
Year=1996
Genre=Viking Metal



Register


Go to the top of the page
  Insert nick Quick quote
+Quote Post
 
Start new topic
Replies (1 - 1)
post Apr 15 2019, 08:08:43
Post #2


Group Icon
Group: S-moderation team
Posts: 9,849
Releases: 1432
From: Zagreb
On Forums: 8 years 1 month
Thanks: 43836 time(s)
Croatia


never released, tracks taken from Demos & Rarities 2xLP compilation 2014.


Here is the rip of the compilation in lossless & lossy:
Register
Register


*moved to Find Area.
Go to the top of the page
  Insert nick Quick quote
+Quote Post

Reply to this topicStart new topic
2 User(s) are reading this topic (2 Guests and 0 Anonymous Users)
0 Members:

 



- Lo-Fi Version Support form
Copyrights and abuse reports form
Time is now: 20th April 2019 - 14:07:33