Welcome Guest ( Log In | Register )

> Forum rules / Правила раздела

Here go releases which can't go to New releases forums due lack of information, stolen links or incorrect data and just founded in other sites links with minimum info. Reissue of this releases through Add release form with added/corrected data, info and own links highly welcomed.

Сюда уходят релизы, не пропущенные в основные релизные форумы по причинам отсутствия, недостаточности или неверности/некорректности сопровождающей информации, содержащие ссылки, указывающие на файлы, залитые не автором темы, а так же просто найденные где-то ссылки с минимумом информации. Переоформление тем отсюда через форму Добавления релиза с перезаливкой ссылок крайне приветствуется.

> Moonsorrow - Promo [demo] (1997), Pagan/Black Metal (D)
post Apr 14 2019, 16:54:19
Post #1

Четыре Литра
****
Group: Металариец
Posts: 326
Releases: 8
On Forums: 10 years 1 month
Thanks: 150 time(s)
United Kingdom


(IMG:http://metalarea.org/images/audiocovers/2019_Apr/acov_tid320533_thumb.jpg)

*Artist: Moonsorrow
*Album: Promo [demo]
*Year: 1997
*Genre: Pagan/Black Metal
*Country: Finland (IMG:http://metalarea.org/forum/style_images/flags/Finland.png)
*Format: mp3@CBR320kbps
*Size: 11MB

Tracklist:
1. Battlehymn 03:47
2. Outro 01:17
******************************
Total playing time: 5:04

Technical info
(IMG:http://metalarea.org/images/spectrogram/2019_Apr/ec31efa708f6a4f3ff501bee13edd575.png)
Input File: O3 Battlehymn.mp3
Channels : 2
Sample Rate : 44100
Precision : 16-bit
Duration : 00:03:48.09 = 10058769 samples = 17106.8 CDDA sectors
File Size : 9.13M
Bit Rate : 320k
Sample Encoding: MPEG audio (layer I, II or III)
Comments :
Title=Battlehymn
Artist=Moonsorrow
Album=Promo
Year=1997
Genre=Viking Metal



Register


Go to the top of the page
  Insert nick Quick quote
+Quote Post
 
Start new topic
Replies (1 - 2)
post Apr 15 2019, 07:32:10
Post #2

De Mysteriis Dom Sathanas
**************
Group: Металариец
Posts: 3,477
Releases: 63
From: Москва
On Forums: 10 years 9 months
Thanks: 2959 time(s)
Russian Federation


Почему песни в архиве 03 и 04 по нумерации?
Go to the top of the page
  Insert nick Quick quote
+Quote Post
post Apr 15 2019, 08:09:12
Post #3


Group Icon
Group: S-moderation team
Posts: 9,846
Releases: 1432
From: Zagreb
On Forums: 8 years 1 month
Thanks: 43833 time(s)
Croatia


never released, tracks taken from Demos & Rarities 2xLP compilation 2014.


Here is the rip of the compilation in lossless & lossy:
Register
Register


*moved to Find Area.


Thanks:
Go to the top of the page
  Insert nick Quick quote
+Quote Post

Reply to this topicStart new topic
2 User(s) are reading this topic (2 Guests and 0 Anonymous Users)
0 Members:

 



- Lo-Fi Version Support form
Copyrights and abuse reports form
Time is now: 20th April 2019 - 13:36:06