Welcome Guest ( Log In | Register )

 
Reply to this topicStart new topic
> Final Heiress - In The Shadows Of Pain [compilation] (2019), Heavy/Power Metal
post Apr 14 2019, 16:57:11
Post #1

Каждое ваше "Спасибо" помогает мне понять, что я делаю новости не напрасно.
**************
Group: Металариец
Posts: 2,040
Releases: 1793
From: Одесса
On Forums: 11 years 5 months
Thanks: 15546 time(s)
Ukraine


(IMG:http://metalarea.org/images/audiocovers/2019_Apr/acov_tid320534_thumb.jpg)

*Artist: Final Heiress
*Album: In The Shadows Of Pain [compilation]
*Year: 2019
*Genre: Heavy/Power Metal
*Country: Netherlands (IMG:http://metalarea.org/forum/style_images/flags/Netherlands.png)
*Format: mp3@CBR320kbps
*Size: 117MB

Tracklist:
1. Burning Brains 03:45
2. Flags of Convenience 06:24
3. Cry From the Undertow 04:51
4. Look Around 05:30
5. Mystery 03:51
6. The Omen (Version 1) 04:26
7. The Omen (Version 2) 04:28
8. Twisted by Rules 06:31
9. Watchful Parasites 06:27
10. You're In My Heart 03:34
******************************
Total playing time: 49:47

Classic Metal Samples


Extended info
Line - up:

Jaap Kramer - Bass
Sicco Swen - Drums
Marco v.d. Oever - Guitars
Michel Molenaar - Guitars
Jan Palenstijn - Vocals (ex-Sad Iron)
Paul van Rijswijk - Guitars (lead) (Emerald, ex-Afterdark, ex-Hammerhawk, ex-Mentorhawk, The Flying Embryo's, ex-Mentors (live), ex-Goddess of Desire, ex-Blabb Sackath (Black Sabbath tribute), ex-Cerberus, ex-Heavy Metal Maniacs Band, ex-Henry the 8th and his Henry's, ex-No Class (Motorhead tribute), ex-The Inflated, ex-The Milfhunters)

(IMG:https://www.metal-archives.com/images/8/7/6/9/87696_photo.jpg?5913)


Technical info
(IMG:http://metalarea.org/images/spectrogram/2019_Apr/c78a7a6fa0700ba90e575551ab951997.png)
Input File: 04 - Look Around.mp3
Channels : 2
Sample Rate : 44100
Precision : 16-bit
Duration : 00:05:30.60 = 14579504 samples = 24795.1 CDDA sectors
File Size : 13.2M
Bit Rate : 320k
Sample Encoding: MPEG audio (layer I, II or III)
Comments :
Title=Look Around
Artist=Final Heiress
Album=In the Shadows of Pain (Compilation)
Tracknumber=04
Year=2019
Genre=Heavy / Power Metal



Register


Go to the top of the page
  Insert nick Quick quote
+Quote Post

Reply to this topicStart new topic
1 User(s) are reading this topic (1 Guests and 0 Anonymous Users)
0 Members:

 



- Lo-Fi Version Support form
Copyrights and abuse reports form
Time is now: 15th November 2019 - 00:28:16