Welcome Guest ( Log In | Register )

 
Reply to this topicStart new topic
> Fly Away - Flames Of Lie (2018), Heavy/Power Metal
post Apr 14 2019, 17:21:24
Post #1

Мегаманьяк
***********
Group: Металариец
Posts: 1,789
Releases: 1554
From: Одесса
On Forums: 11 years 2 weeks
Thanks: 12942 time(s)
Ukraine


(IMG:http://metalarea.org/images/audiocovers/2019_Apr/acov_tid320535_thumb.jpg)

*Artist: Fly Away
*Album: Flames Of Lie
*Year: 2018
*Genre: Heavy/Power Metal
*Country: Brazil (IMG:http://metalarea.org/forum/style_images/flags/Brazil.png)
*Format: mp3@CBR320kbps
*Size: 102MB

Tracklist:
1. Mechanical Vise 04:50
2. Hand of Fate 03:38
3. Flames of Lie 07:17
4. Wings of Time 06:53
5. Fear of Reality 04:06
6. Hurricane 04:01
7. Bullet in My Head 05:47
8. Sleep Paralysis 09:46
******************************
Total playing time: 46:18

(IMG:http://metalarea.org/images/youtube.png)

Extended info
Line - up:

Diego Rafael Prigol - Guitars (lead), Keyboards
Felipe Marcel Cândido Fonseca - Vocals, Guitars (rhythm)
Anderson Mendes de Araújo - Drums
Eugenio Waismam Junior - Bass

(IMG:https://www.metal-archives.com/images/3/5/4/0/3540447978_photo.jpg?0759)


Technical info
(IMG:http://metalarea.org/images/spectrogram/2019_Apr/f85c387e8ed6e145a90a72dbabfb04d1.png)
Input File: 06. Hurricane.mp3
Channels : 2
Sample Rate : 44100
Precision : 16-bit
Duration : 00:04:01.44 = 10647504 samples = 18108 CDDA sectors
File Size : 9.73M
Bit Rate : 322k
Sample Encoding: MPEG audio (layer I, II or III)
Comments :
Title=Hurricane
Artist=Fly Away
Album=Flames of Lie
Tracknumber=6
Year=2018
Genre=Heavy / Power Metal



Register


Go to the top of the page
  Insert nick Quick quote
+Quote Post

Reply to this topicStart new topic
1 User(s) are reading this topic (1 Guests and 0 Anonymous Users)
0 Members:

 



- Lo-Fi Version Support form
Copyrights and abuse reports form
Time is now: 19th June 2019 - 04:15:47