Welcome Guest ( Log In | Register )

> Releases Upload / Добавление релизов

Добавить релиз тут / Click here to add release
Рекомендованные обменники / Recommended file shares

> Forces United - Симфония Холстинина (2018), Progressive/Power Metal/Metalcore (D10)
post Apr 14 2019, 18:13:55
Post #1

Мегаманьяк
***********
Group: Металариец
Posts: 1,692
Releases: 1464
From: Одесса
On Forums: 10 years 10 months
Thanks: 11942 time(s)
Ukraine


(IMG:http://metalarea.org/images/audiocovers/2019_Apr/acov_tid320536_thumb.jpg)

*Artist: Forces United
*Album: Симфония Холстинина
*Year: 2018
*Genre: Progressive/Power Metal/Metalcore
*Country: International (IMG:http://metalarea.org/forum/style_images/flags/International.png)
*Format: mp3@CBR320kbps
*Size: 390MB

Tracklist:
1. Интро 01:00
2. Колизей (Ария cover) 06:31
3. Бегущий человек (Ария cover) 06:10
4. Небо тебя найдёт (Ария cover) 05:06
5. Симфония огня (Ария cover) 05:34
6. Последний закат (Ария cover) 05:16
7. Белый флаг (Ария cover) 04:33
8. Дальний свет (Ария cover) 03:53
9. Патриот (Ария cover) 04:29
10. Вампир (Ария cover) 05:06
11. Мессия (Ария cover) 04:33
12. Тысяча сто (Ария cover) 04:08
13. Палач (Ария cover) 08:27
14. Замкнутый круг (Outro) (Ария cover) * 02:56
15. Колизей (English language piano version) (Ария cover) * 03:47
16. Симфония огня (Ария cover) * 04:33
******************************
Total playing time: 1:16:02



Extended info
Line - up:
Anna Sreda - Vocals (backing) (track 4)
Konstantin Seleznev - Guitars (lead) (tracks 1, 2, 5, 13, 16)
Oleg Izotov - Guitars (lead) (tracks 3, 8, 9)
Jukka Koskimäki - Drums
Sergey "ID" Bogolyubsky - Guitars (lead) (track 4)
Kirill NEMolyaev - Keyboards
Alexander "Wish" Andryukhin - Keyboards (track 15)
Maxim Samosvat - Vocals (track 14)
Andrey Lobashev - Vocals (track 12)
Daria "Nookie" Stavrovich - Vocals (track 12)
Evgeny Egorov - Vocals (tracks 4, 6, 12)
Helga Andreeva - Guitars (lead) (track 7)
Peter Elfimov - Vocals (tracks 2, 6, 9, 10, 15)
Sergey Golovin - Guitars (lead) (track 12)
Viktor "Anger" - Vocals (tracks 6, 9, 12)
Vladimir Nasonov - Guitars (track 14)
Dmitry Skidanenko - Vocals (track 9)
Sergey Sinev - Vocals (tracks 3, 5-7, 11, 13)
Yulia Pak - Vocals (track 9)
Alexey Bulgakov - Vocals (track 16)
Oleg Zhilyakov - Vocals (tracks 1, 9)
Andrey Lefler - Vocals (track 9)
Maxim Ryansky - Vocals (track 9), Vocals (backing), Guitars, Guitars (lead) (tracks 6, 11), Bass
Evgeny Kolchin - Vocals (track 8)

Guest/Session:
Mikhail Seryshev - Vocals (track 12)


Technical info
(IMG:http://metalarea.org/images/spectrogram/2019_Apr/db204db0669f7f1aee03a7bbea8f1892.png)
Input File: 14. Замкнутый Круг (Аутро).mp3
Channels : 2
Sample Rate : 44100
Precision : 16-bit
Duration : 00:02:57.07 = 7808787 samples = 13280.2 CDDA sectors
File Size : 7.09M
Bit Rate : 320k
Sample Encoding: MPEG audio (layer I, II or III)
Comments :
Title=Замкнутый Круг (Аутро)
Artist=Forces United
Album=Симфония Холстинина
Tracknumber=14
Year=2018
Genre=Progressive / Power Metal / Metalcore



Register


Thanks:
Go to the top of the page
  Insert nick Quick quote
+Quote Post
 
Start new topic
Replies (1 - 3)
post Apr 15 2019, 12:01:12
Post #2

Dark Ambient Shoujo
**********
Group: Металариец
Posts: 1,113
Releases: 1
On Forums: 10 years 3 months
Thanks: 558 time(s)
Russian Federation


Послушал пару треков – и чот кринж!
Go to the top of the page
  Insert nick Quick quote
+Quote Post
post Apr 15 2019, 15:17:09
Post #3

Group: Подсевший
Posts: 45
Releases: 0
On Forums: 9 years 11 months
Thanks: 7 time(s)
Bulgaria


Necrokilldozer,альбом не полный.Где песня "Тебе дадут знак"?
Go to the top of the page
  Insert nick Quick quote
+Quote Post
post Apr 15 2019, 20:40:01
Post #4

Ёлд ХеллоВяйне
Group Icon
Group: V.I.P
Posts: 26,951
Releases: 131
From: Питер
On Forums: 12 years 5 months
Thanks: 15012 time(s)
Russian Federation


Ссылка на БК левая.

Go to the top of the page
  Insert nick Quick quote
+Quote Post

Reply to this topicStart new topic
1 User(s) are reading this topic (1 Guests and 0 Anonymous Users)
0 Members:

 



- Lo-Fi Version Support form
Copyrights and abuse reports form
Time is now: 20th April 2019 - 13:14:23