Welcome Guest ( Log In | Register )

> Forlorn Hope - Forlorn Hope [ep] (2018), Heavy/Power Metal
post Apr 14 2019, 18:25:15
Post #1

Мегаманьяк
***********
Group: Металариец
Posts: 1,789
Releases: 1554
From: Одесса
On Forums: 11 years 2 weeks
Thanks: 12943 time(s)
Ukraine


(IMG:http://metalarea.org/images/audiocovers/2019_Apr/acov_tid320537_thumb.jpg)

*Artist: Forlorn Hope
*Album: Forlorn Hope [ep]
*Year: 2018
*Genre: Heavy/Power Metal
*Country: United Kingdom (IMG:http://metalarea.org/forum/style_images/flags/United%20Kingdom.png)
*Format: mp3@CBR320kbps
*Size: 29MB

Tracklist:
1. Rifles 02:54
2. Talavera 03:56
3. Vive L'Empereur 05:17
******************************
Total playing time: 12:07



Extended info
Line - up:

John Roughley - Bass, Vocals (backing)
Danny Kelly - Drums
Alex Bishop - Guitars (lead), Vocals (backing) (ex-D.A.M.)
Chris Simpson - Guitars (rhythm), Vocals
Jade McKenna - Keyboards

(IMG:https://www.metal-archives.com/images/3/5/4/0/3540438851_photo.jpg?1202)


Technical info
(IMG:http://metalarea.org/images/spectrogram/2019_Apr/a785e7314b58f2656eac4b03e1d762ad.png)
Input File: 02. Talavera.mp3
Channels : 2
Sample Rate : 44100
Precision : 16-bit
Duration : 00:03:56.95 = 10449319 samples = 17771 CDDA sectors
File Size : 9.48M
Bit Rate : 320k
Sample Encoding: MPEG audio (layer I, II or III)
Comments :
Title=Talavera
Artist=Forlorn Hope
Album=Forlorn Hope (EP)
Tracknumber=2
Year=2018
Genre=Heavy / Power Metal



Register


Go to the top of the page
  Insert nick Quick quote
+Quote Post
 
Start new topic
Replies (1 - 3)
post Apr 15 2019, 06:27:50
Post #2

Наливай!
**************
Group: Металариец
Posts: 5,320
Releases: 27
From: Москва-Бибирево
On Forums: 11 years 3 months
Thanks: 2543 time(s)
Russian Federation


Go to the top of the page
  Insert nick Quick quote
+Quote Post
post Apr 15 2019, 07:13:03
Post #3

Три Литра
***
Group: Завсегдатай
Posts: 284
Releases: 16
On Forums: 5 years 9 months
Thanks: 607 time(s)
Iceland


Poor Iced Earth clone?
Go to the top of the page
  Insert nick Quick quote
+Quote Post
post May 2 2019, 06:24:49
Post #4

Два Литра
**
Group: Завсегдатай
Posts: 113
Releases: 1
On Forums: 13 years 2 months
Thanks: 30 time(s)
Russian Federation


Недурно.
Go to the top of the page
  Insert nick Quick quote
+Quote Post

Reply to this topicStart new topic
1 User(s) are reading this topic (1 Guests and 0 Anonymous Users)
0 Members:

 



- Lo-Fi Version Support form
Copyrights and abuse reports form
Time is now: 19th June 2019 - 04:25:23