Welcome Guest ( Log In | Register )

> Releases Upload / Добавление релизов

Добавить релиз тут / Click here to add release
Рекомендованные обменники / Recommended file shares

> Blåkulla - An Almighty Sacrifice [ep] (2019), Black Metal
post Apr 14 2019, 20:59:08
Post #1

Правь статус, ####!111
**************
Group: Металариец
Posts: 3,588
Releases: 834
From: Brazil
On Forums: 7 years 2 months
Thanks: 31218 time(s)
Brazil


(IMG:https://metalarea.org/images/audiocovers/2019_Apr/acov_tid320538_thumb.jpg)

*Artist: Blåkulla
*Album: An Almighty Sacrifice [ep]
*Year: 2019
*Genre: Black Metal
*Country: France (IMG:https://metalarea.org/forum/style_images/flags/France.png)
*Format: mp3@CBR320kbps
*Size: 56MB

Tracklist:
1. Hermann The Great 06:53
2. Drink the Devil's Blood (Deathspell Omega cover) 03:43
3. Amongst Ageless Tombs 13:17
******************************
Total playing time: 23:53

Extended info
Darker than Black Records


Technical info
(IMG:https://metalarea.org/images/spectrogram/2019_Apr/885e6e043c32746a73f2fd626a8002f8.png)
Input File: 02 Drink the Devil\'s Blood (Deathspell Omega cover).mp3
Channels : 2
Sample Rate : 44100
Precision : 16-bit
Duration : 00:03:43.07 = 9837431 samples = 16730.3 CDDA sectors
File Size : 8.92M
Bit Rate : 320k
Sample Encoding: MPEG audio (layer I, II or III)
Comments :
Title=Drink the Devil's Blood (Deathspell Omega cover)
Artist=Blåkulla
Album=An Almighty Sacrifice
Tracknumber=2
Year=2019



Register


Go to the top of the page
  Insert nick Quick quote
+Quote Post
 
Start new topic
Replies (1 - 1)
post Apr 15 2019, 06:02:04
Post #2

Литр
*
Group: Подсевший
Posts: 56
Releases: 1
On Forums: 7 years 1 month
Thanks: 45 time(s)
Ukraine


Go to the top of the page
  Insert nick Quick quote
+Quote Post

Reply to this topicStart new topic
1 User(s) are reading this topic (1 Guests and 0 Anonymous Users)
0 Members:

 



- Lo-Fi Version Support form
Copyrights and abuse reports form
Time is now: 20th April 2019 - 13:18:01