Welcome Guest ( Log In | Register )

 
Reply to this topicStart new topic
> Decoherence - Decoherence [ep] (2019), Black Metal (D5)
post Apr 15 2019, 10:59:37
Post #1

Литр
*
Group: Подсевший
Posts: 87
Releases: 43
On Forums: 8 years 6 months
Thanks: 2213 time(s)
Unknown


(IMG:http://metalarea.org/images/audiocovers/2019_Apr/acov_tid320547_thumb.jpg)

*Artist: Decoherence
*Album: Decoherence [ep]
*Year: 2019
*Genre: Black Metal
*Country: United Kingdom (IMG:http://metalarea.org/forum/style_images/flags/United%20Kingdom.png)
*Format: mp3@CBR320kbps
*Size: 23MB

Tracklist:
1. I 04:11
2. II 05:14
******************************
Total playing time: 9:25



Technical info
(IMG:http://metalarea.org/images/spectrogram/2019_Apr/b612aed522c3574027e1b0e965102c4e.png)
Input File: 01 I.mp3
Channels : 2
Sample Rate : 44100
Precision : 16-bit
Duration : 00:00:00.25 = 11069 samples = 18.8248 CDDA sectors
File Size : 10.7M
Bit Rate : 342M
Sample Encoding: MPEG audio (layer I, II or III)
Comments :
Title=I
Artist=Decoherence
Album=Decoherence
Tracknumber=1/2
Year=2019-19-20
Genre=Metal
Discnumber=1/1



Register


Go to the top of the page
  Insert nick Quick quote
+Quote Post

Reply to this topicStart new topic
1 User(s) are reading this topic (1 Guests and 0 Anonymous Users)
0 Members:

 



- Lo-Fi Version Support form
Copyrights and abuse reports form
Time is now: 20th September 2019 - 04:46:40