Welcome Guest ( Log In | Register )

 
Reply to this topicStart new topic
> Šakal - Welcome Winter [demo] (1991), Thrash Metal
post Apr 15 2019, 11:07:50
Post #1

Подвал
**************
Group: Металариец
Posts: 13,576
Releases: 7694
From: Far East (Khabarovsk)
On Forums: 10 years 6 months
Thanks: 74148 time(s)
Russian Federation


(IMG:http://metalarea.org/images/audiocovers/2019_Apr/acov_tid320548_thumb.png)

*Artist: Šakal
*Album: Welcome Winter [demo]
*Year: 1991
*Genre: Thrash Metal
*Country: Slovakia (IMG:http://metalarea.org/forum/style_images/flags/Slovakia.png)
*Format: mp3@CBR320kbps
*Size: 78MB

Tracklist:
1. The Last One 05:33
2. Mandate To Kill 03:30
3. Awoke From Eternal Dream 04:13
4. Help Me Die 03:47
5. Saint Jackal 04:52
6. End Of Silence 05:00
7. Friday The Thirteenth 04:46
8. Bloody Mary 05:30
9. The God's Cow 00:56
10. Zimné Jindro (Intro) 00:58
******************************
Total playing time: 39:05

Extended info
Very good classic thrash.


Technical info
(IMG:http://metalarea.org/images/spectrogram/2019_Apr/423d3829ea832d5bce061d945ea0223a.png)
Input File: 02-Mandate To Kill.mp3
Channels : 2
Sample Rate : 44100
Precision : 16-bit
Duration : 00:03:24.78 = 9030798 samples = 15358.5 CDDA sectors
File Size : 8.26M
Bit Rate : 323k
Sample Encoding: MPEG audio (layer I, II or III)
Comments :
Title=Mandate To Kill
Artist=Šakal
Album=Welcome Winter [demo]
Tracknumber=02
Year=1991
Genre=Thrash Metal



Register


Go to the top of the page
  Insert nick Quick quote
+Quote Post

Reply to this topicStart new topic
1 User(s) are reading this topic (1 Guests and 0 Anonymous Users)
0 Members:

 



- Lo-Fi Version Support form
Copyrights and abuse reports form
Time is now: 22nd August 2019 - 15:07:50