Welcome Guest ( Log In | Register )

> Hades - Instrumental Things 1988 - 2012 (2019), Power/Thrash Metal (D)
post Apr 16 2019, 16:33:22
Post #1

Правь статус, ####!111
**************
Group: Металариец
Posts: 2,784
Releases: 2488
From: Одесса
On Forums: 11 years 11 months
Thanks: 23589 time(s)
Ukraine


(IMG:http://metalarea.org/images/audiocovers/2019_Apr/acov_tid320604_thumb.jpg)

*Artist: Hades
*Album: Instrumental Things 1988 - 2012
*Year: 2019
*Genre: Power/Thrash Metal
*Country: Bulgaria (IMG:http://metalarea.org/forum/style_images/flags/Bulgaria.png)
*Format: mp3@CBR320kbps
*Size: 68MB

Tracklist:
1. Battle Plane 04:34 instrumental
2. Vimana 05:08
3. Vimana II 05:11
4. The Nephilim 05:39
5. God's Palace 06:30
6. Conversation with Angel 03:46
******************************
Total playing time: 30:48

(IMG:http://metalarea.org/images/youtube.png)
(IMG:http://metalarea.org/images/myspace.png)

Extended info
Line - up:

Konstantin Jambazov - Guitars (Pavlin Neichev, ex-Тотал, Virtuel, ex-Ametist, ex-ClearLand, ex-Fobos, ex-Jekyll Hyde, ex-Odessos, ex-Silent Madness)
Julian Kolev - Bass (ex-Dr. Doolittle, ex-Тотал, ex-Lucifer, ex-Одесос)
Armenak Terteryan - Drums

(IMG:https://www.metal-archives.com/images/3/5/4/0/3540312638_photo.jpg?4910)


Technical info
(IMG:http://metalarea.org/images/spectrogram/2019_Apr/033c8217c4b4694c735a40cf894a1ef1.png)
Input File: 04-hades-the_nephilim-33b594c1.mp3
Channels : 2
Sample Rate : 44100
Precision : 16-bit
Duration : 00:05:39.04 = 14951620 samples = 25427.9 CDDA sectors
File Size : 13.6M
Bit Rate : 320k
Sample Encoding: MPEG audio (layer I, II or III)
Comments :
Title=The Nephilim
Artist=Hades
Album=Instrumental Things 1988 - 2012
Tracknumber=4
Year=2019
Genre=Power / Thrash Metal



Register


Go to the top of the page
  Insert nick Quick quote
+Quote Post
 
Start new topic
Replies (1 - 4)
post Apr 17 2019, 08:16:59
Post #2

hearer & reader
**************
Group: Металариец
Posts: 8,695
Releases: 140
From: Moscow
On Forums: 12 years 8 months
Thanks: 8710 time(s)
Russian Federation


https://music.yandex.ru/album/6934653
Когда не чешут на родном, то шикарны.
Go to the top of the page
  Insert nick Quick quote
+Quote Post
post Apr 20 2019, 10:46:55
Post #3

hearer & reader
**************
Group: Металариец
Posts: 8,695
Releases: 140
From: Moscow
On Forums: 12 years 8 months
Thanks: 8710 time(s)
Russian Federation


ЦИТАТА(Necrokilldozer @ Apr 16 2019, 18:33:22) *
1. Battle Plane 04:34 instrumental

Ась?
Go to the top of the page
  Insert nick Quick quote
+Quote Post
post May 19 2020, 18:51:42
Post #4

Group: Дух
Posts: 6
Releases: 0
On Forums: 11 years 11 hours
Thanks: 0 time(s)
Russian Federation


Re Up ¡¡¡¡


Please
Go to the top of the page
  Insert nick Quick quote
+Quote Post
post May 23 2020, 08:41:06
Post #5

Group Icon
Group: S-moderation team
Posts: 15,553
Releases: 1440
From: Zagreb
On Forums: 9 years 3 months
Thanks: 69086 time(s)
Croatia


Register


Thanks:
(1) Olethros,
Go to the top of the page
  Insert nick Quick quote
+Quote Post

Reply to this topicStart new topic
1 User(s) are reading this topic (1 Guests and 0 Anonymous Users)
0 Members:

 



- Lo-Fi Version Support form
Copyrights and abuse reports form
Time is now: 28th May 2020 - 13:59:07