Welcome Guest ( Log In | Register )

> Malhavoc - July Rehearsal [bootleg] (1987), Death/Black/Thrash/Heavy Metal (D)
post Apr 22 2019, 21:44:30
Post #1

Девять Литров
*********
Group: Металариец
Posts: 951
Releases: 187
On Forums: 2 years 2 months
Thanks: 2729 time(s)
Canada


(IMG:https://metalarea.org/images/audiocovers/2019_Apr/acov_tid320871_thumb.png)

*Artist: Malhavoc
*Album: July Rehearsal [bootleg]
*Year: 1987
*Genre: Death/Black/Thrash/Heavy Metal
*Country: Canada (IMG:https://metalarea.org/forum/style_images/flags/Canada.png)
*Format: mp3@CBR320kbps
*Size: 106MB

Tracklist:
1. Age of The Dark Renaissance 01:58
2. Urbain Grandier 04:50
3. Masque of Red Death 05:30
4. Meridiana 05:20
5. Dread 07:08
6. Age Of Desire 05:17
7. Empirical Minds 07:17
8. Trial & Error-From Beyond-Deathtrance 05:43
9. Attack from the Sepulcher (master tape cuts off) 02:59
******************************
Total playing time: 46:02



Technical info
(IMG:https://metalarea.org/images/spectrogram/2019_Apr/dfd232521584749e72d90d98df6d616b.png)
Input File: 01.Age of The Dark Renaissance.mp3
Channels : 2
Sample Rate : 44100
Precision : 16-bit
Duration : 00:01:58.21 = 5213061 samples = 8865.75 CDDA sectors
File Size : 4.73M
Bit Rate : 320k
Sample Encoding: MPEG audio (layer I, II or III)
Comments :
Artist=MALHAVOC
Album=July 1987 rehearsal tape
Year=1987
Genre=Death/Thrash Metal/Black Metal



Register


Go to the top of the page
  Insert nick Quick quote
+Quote Post
 
Start new topic
Replies (1 - 1)
post Apr 23 2019, 23:26:46
Post #2

Четыре Литра
****
Group: Металариец
Posts: 305
Releases: 0
From: Hellisipolis
On Forums: 12 years 2 months
Thanks: 34 time(s)
Antarctica


Any demos from the "Punishments" and "Release" era would be very welcome.

Thanks for this.

There used to be a blog who used to have loads of their old 80s stuff. Unfortunately have no idea where that stuff is nowadays.


Thanks:
(1) Wail,
Go to the top of the page
  Insert nick Quick quote
+Quote Post

Reply to this topicStart new topic
2 User(s) are reading this topic (2 Guests and 0 Anonymous Users)
0 Members:

 



- Lo-Fi Version Support form
Copyrights and abuse reports form
Time is now: 14th April 2021 - 16:13:56