Welcome Guest ( Log In | Register )

> 

Здесь релизы с живыми прямыми ссылками на lossless

 
Reply to this topicStart new topic
> Profanation - Into Cascades Of Blood And Burning Soil (2019), Death Metal/Grindcore
post Apr 25 2019, 12:43:17
Post #1

Serial Uploader
Group Icon
Group: V.I.P
Posts: 36,277
Releases: 34471
From: Lithuania
On Forums: 11 years 4 months
Thanks: 400818 time(s)
Lithuania


(IMG:https://metalarea.org/images/audiocovers/2019_Apr/acov_tid320988_thumb.jpg)

*Artist: Profanation
*Album: Into Cascades Of Blood And Burning Soil
*Year: 2019
*Genre: Death Metal/Grindcore
*Country: Germany (IMG:https://metalarea.org/forum/style_images/flags/Germany.png)
*Format: mp3@CBR320kbps
*Size: 122MB

Tracklist:
01. Incantation 02:13
02. Into Cascades of Blood and Burning Soil 05:33
03. Seed of Evil 05:34
04. Silent God 05:16
05. Bloodbath in Heaven 05:06
06. Der Gemütliche 06:27
07. Unholy Brutality Unleashed 05:20
08. The Prophecy 05:13
09. Butcher's Joy 05:58
10. A Place to Pray - Ablaze for Prey 06:57
******************************
Total playing time: 53:37

(IMG:https://metalarea.org/images/myspace.png)



(IMG:https://metalarea.org/images/youtube.png)

Technical info
(IMG:https://metalarea.org/images/spectrogram/2019_Apr/f9cfa65a5c8377f9d90fcadbbce15409.png)
Input File: 2 - Into Cascades of Blood and Burning Soil.mp3
Channels : 2
Sample Rate : 44100
Precision : 16-bit
Duration : 00:05:21.32 = 14170344 samples = 24099.2 CDDA sectors
File Size : 12.9M
Bit Rate : 322k
Sample Encoding: MPEG audio (layer I, II or III)
Comments :
Title=Into Cascades of Blood and Burning Soil
Artist=Profanation
Album=Into Cascades of Blood and Burning Soil
Tracknumber=2
Year=2019
Genre=Alternative/Indie Rock/Metal
Discnumber=1



Register


Go to the top of the page
  Insert nick Quick quote
+Quote Post
post Apr 25 2019, 22:14:37
Post #2

MDM-Thrash Metal
**************
Group: Металариец
Posts: 8,846
Releases: 658
From: Одесса
On Forums: 12 years 2 months
Thanks: 18446 time(s)
Ukraine


Register


Thanks:
Go to the top of the page
  Insert nick Quick quote
+Quote Post
post Apr 26 2019, 11:20:51
Post #3

Четыре Литра
****
Group: Металариец
Posts: 341
Releases: 0
From: APATIN, SERBIA, АПАТИН, СЕРБИЯ
On Forums: 11 years 11 months
Thanks: 474 time(s)



Flac

Register


Thanks:
(1) Olethros,
Go to the top of the page
  Insert nick Quick quote
+Quote Post

Reply to this topicStart new topic
1 User(s) are reading this topic (1 Guests and 0 Anonymous Users)
0 Members:

 



- Lo-Fi Version Support form
Copyrights and abuse reports form
Time is now: 13th October 2019 - 23:16:14