Welcome Guest ( Log In | Register )

> 

Здесь релизы с живыми прямыми ссылками на lossless

> Veil - Dolor (2005), Black Metal
post May 16 2006, 19:46:24
Post #1

Панамец
**************
Group: Металариец
Posts: 2,447
Releases: 319
From: Панама, город Панама, район Эль-Дорадо
On Forums: 11 years 9 months
Thanks: 3977 time(s)
Panama


(IMG:http://img155.imageshack.us/img155/8328/103091ph6.jpg)

*Artist: Veil
*Album: Dolor
*Year: 2005
*Genre: Black Metal
*Country: USA
*Format: mp3@256
*Size: 68 Мб.

Tracklist:
01-Suicide Winds (3:57)
02-Dirge (7:20)
03-I Follow (8:52)
04-Ea, Lord Of The Depths (4:56)
05-Suicide Winds (Reprise) (2:42)
06-Endless Night (11:39)
*************************
Total playing time: 39:26

Потрясающе красивый депрессив для всех, кто любит SHINING & COLDWORLD.
Register


Вернуться к началу страницы
  Insert nick Quick quote
+Цитировать сообщение
2 Pages V  < 1 2  
Создать новую тему
Replies (30 - 38)
post Sep 29 2010, 12:45:54
Post #31

TomheT
**************
Group: Металариец
Posts: 4,168
Releases: 75
From: Малоярославец
On Forums: 9 years 10 months
Thanks: 16069 time(s)
Russian Federation


Register


Thanks:
Вернуться к началу страницы
  Insert nick Quick quote
+Цитировать сообщение
post Oct 15 2010, 03:16:13
Post #32

любитель шведской buzzzzy'ны
**************
Group: Металариец
Posts: 7,234
Releases: 346
From: На берегах Оки и Волги одновремеННо
On Forums: 11 years 1 month
Thanks: 22974 time(s)
Russian Federation


(IMG:http://img714.imageshack.us/img714/3237/90782388.jpg)

*Format: mp3@320 CBR (EAC + lame 3.93.1, log) + Scans
*Size: 93 Mb

Хотел в старый пост ССылки добавить, а его редактировать нельзя, бгг.

Register


Вернуться к началу страницы
  Insert nick Quick quote
+Цитировать сообщение
post Oct 28 2010, 12:14:28
Post #33

Ничего не знаю. Ничего.
***********
Group: Металариец
Posts: 1,505
Releases: 47
From: вержение
On Forums: 9 years 4 months
Thanks: 1648 time(s)
Russian Federation


Что-то вторично показалось. Последний трек сильно напомнил какой-то другой у Nocturnal Depression. Гитарки будто слизанные (IMG:style_emoticons/default/hmm.gif)

Вернуться к началу страницы
  Insert nick Quick quote
+Цитировать сообщение
post Apr 4 2012, 21:59:16
Post #34

Четыре Литра
****
Group: Металариец
Posts: 311
Releases: 16
From: Rohan
On Forums: 8 years 9 months
Thanks: 479 time(s)
Greenland


Register
Вернуться к началу страницы
  Insert nick Quick quote
+Цитировать сообщение
psychonaut
post Apr 21 2012, 12:45:40
Post #35

Guests team






Не было бы грандов жанра, то тогда бы Veil это лучший атмосферик/депрессив.
Вернуться к началу страницы
  Insert nick Quick quote
+Цитировать сообщение
post Jul 20 2012, 08:29:06
Post #36

TomheT
**************
Group: Металариец
Posts: 4,168
Releases: 75
From: Малоярославец
On Forums: 9 years 10 months
Thanks: 16069 time(s)
Russian Federation


CD-Rip 320kbps+lame-3.93.1+scans -100Mb
Register

CD-Rip flac+cue+log+scans -314Mb
Register


logfile
Exact Audio Copy V1.0 beta 3 from 29. August 2011

EAC extraction logfile from 19. July 2012, 20:31

Veil / Dolor

Used drive : ASUS DRW-1814BLT Adapter: 3 ID: 0

Read mode : Secure
Utilize accurate stream : Yes
Defeat audio cache : Yes
Make use of C2 pointers : No

Read offset correction : 6
Overread into Lead-In and Lead-Out : No
Fill up missing offset samples with silence : Yes
Delete leading and trailing silent blocks : No
Null samples used in CRC calculations : Yes
Used interface : Native Win32 interface for Win NT & 2000

Used output format : User Defined Encoder
Selected bitrate : 320 kBit/s
Quality : High
Add ID3 tag : Yes
Command line compressor : C:\Program Files (x86)\Exact Audio Copy\Flac\flac.exe
Additional command line options : -V -8 %source%


TOC of the extracted CD

Track | Start | Length | Start sector | End sector
---------------------------------------------------------
1 | 0:00.00 | 3:57.45 | 0 | 17819
2 | 3:57.45 | 7:20.40 | 17820 | 50859
3 | 11:18.10 | 8:52.10 | 50860 | 90769
4 | 20:10.20 | 4:56.40 | 90770 | 113009
5 | 25:06.60 | 2:42.52 | 113010 | 125211
6 | 27:49.37 | 11:39.17 | 125212 | 177653


Range status and errors

Selected range

Filename D:\MUSIC\FLAC\Veil 2005 Dolor\Veil - Dolor.wav

Peak level 100.0 %
Extraction speed 7.8 X
Range quality 100.0 %
Test CRC F529C64D
Copy CRC F529C64D
Copy OK

No errors occurred


AccurateRip summary

Track 1 not present in database
Track 2 not present in database
Track 3 not present in database
Track 4 not present in database
Track 5 not present in database
Track 6 not present in database

None of the tracks are present in the AccurateRip database

End of status report


Вернуться к началу страницы
  Insert nick Quick quote
+Цитировать сообщение
post Apr 23 2013, 20:40:27
Post #37

Правь статус, ####!111
**************
Group: Металариец
Posts: 2,976
Releases: 438
On Forums: 10 years 2 months
Thanks: 13189 time(s)
Germany


320 kbps + scans
Register


Thanks:
Вернуться к началу страницы
  Insert nick Quick quote
+Цитировать сообщение
post Aug 22 2016, 02:21:50
Post #38

Group: Подсевший
Posts: 14
Releases: 0
From: Sachsen
On Forums: 4 years 8 months
Thanks: 14 time(s)
Germany


http://www62.zippyshare.com/v/84882753/file.html


Thanks:
(1) zlvd,
Вернуться к началу страницы
  Insert nick Quick quote
+Цитировать сообщение
post Oct 12 2017, 21:37:42
Post #39

Три Литра
***
Group: Завсегдатай
Posts: 216
Releases: 7
From: UA
On Forums: 9 years 11 months
Thanks: 575 time(s)
Ukraine


*Формат: mp3@320 CBR (EAC + lame 3.93.1, log) + Scans
*Размер: 92 Mb
Register


Thanks:
Вернуться к началу страницы
  Insert nick Quick quote
+Цитировать сообщение

2 Pages V  < 1 2
ОтветитьСоздать новую тему
2 User(s) are reading this topic (2 Guests and 0 Anonymous Users)
0 Members:

 



- Lo-Fi Version Support form
Copyrights and abuse reports form
Time is now: 18th February 2018 - 04:19:20