Welcome Guest ( Log In | Register )

> Seraph In Travail - Lest They Feed Upon Your Soul (2019), Symphonic Death/Black Metal
post Apr 29 2019, 20:58:00
Post #1

Правь статус, ####!111
**************
Group: Металариец
Posts: 18,126
Releases: 12260
From: Г.Харьков
On Forums: 7 years 3 months
Thanks: 206549 time(s)
Unknown


(IMG:https://metalarea.org/images/audiocovers/2019_Apr/acov_tid321216_thumb.jpg)

*Artist: Seraph In Travail
*Album: Lest They Feed Upon Your Soul
*Year: 2019
*Genre: Symphonic Death/Black Metal
*Country: United States (IMG:https://metalarea.org/forum/style_images/flags/United%20States.png)
*Format: mp3@CBR320kbps
*Size: 113MB

Tracklist:
01. At the Stormed Shore of Heaven
02. Temptress Suicide
03. To Atom-Crushing Glory
04. You Will Be My Vengeance
05. In Frostbitten Moonlight
06. A Fragrant Corpse Carriaged
07. Worlds Strewn Like Wreckage
08. The Tide I Could Not Turn
******************************
Total playing time: 53:38



Extended info
Joe Bonner Guitars (2008-present)
Jon Sutherman Vocals (2008-present), Bass (2017-present)
Mike Shaw Bass (2016-2017), Drums (2017-present)
See also: Deathwalkers, Grave Gnosis, Impurity, Nakhiel, ex-Duskmourn, ex-Extremely Rotten
Dan Shegogue Guitars (2016-present)


Technical info
(IMG:https://metalarea.org/images/spectrogram/2019_Apr/907544d38f0b9b63c3af62f85172e193.png)
Input File: 03. To Atom-Crushing Glory.mp3
Channels : 2
Sample Rate : 44100
Precision : 16-bit
Duration : 00:07:44.90 = 20502266 samples = 34867.8 CDDA sectors
File Size : 18.7M
Bit Rate : 322k
Sample Encoding: MPEG audio (layer I, II or III)
Comments :
Title=To Atom-Crushing Glory
Artist=Seraph in Travail
Album=Lest They Feed Upon Your Soul
Tracknumber=3
Year=2019
Discnumber=1



Register


Go to the top of the page
  Insert nick Quick quote
+Quote Post
 
Start new topic
Replies (1 - 3)
post Apr 30 2019, 16:05:32
Post #2

Правь статус, ####!111
**************
Group: Металариец
Posts: 18,126
Releases: 12260
From: Г.Харьков
On Forums: 7 years 3 months
Thanks: 206549 time(s)
Unknown


Cloud Mail 320
Register
Go to the top of the page
  Insert nick Quick quote
+Quote Post
post Apr 30 2019, 21:50:00
Post #3

Это просто место… где все подошло к концу.
**************
Group: Металариец
Posts: 5,575
Releases: 0
From: Страны Мамонтов
On Forums: 12 years 5 months
Thanks: 1972 time(s)
Antarctica


Symphonic Death/Black Metal - такого стиля не бывает, это все провокация


Thanks:
(1) krotovich,
Go to the top of the page
  Insert nick Quick quote
+Quote Post
post Apr 30 2019, 22:08:14
Post #4

MDM-Thrash Metal
**************
Group: Металариец
Posts: 8,529
Releases: 564
From: Одесса
On Forums: 12 years 1 week
Thanks: 16533 time(s)
Ukraine




Thanks:
Go to the top of the page
  Insert nick Quick quote
+Quote Post

Reply to this topicStart new topic
2 User(s) are reading this topic (2 Guests and 0 Anonymous Users)
0 Members:

 



- Lo-Fi Version Support form
Copyrights and abuse reports form
Time is now: 19th August 2019 - 00:30:38